Торрент файл
скачать торрент магнет ссылка Добавлен: 15 янв 2012, 21:29
Размер: 1.37 ГБ
Сидеров: 10
Личеров: 7
Автор

СообщениеДобавлено: 15 янв 2012, 21:29 

Не в сети
Супермодератор
Аватара пользователя
Дата регистрации:
11 апр 2010, 18:10
Спасибо: 5960 / 7
Сообщения: 56765
Милашка Рита / Lovely Rita, sainte patronne des cas désespérés


Перевод: Профессиональный (многоголосый, закадровый), cубтитры: отсутствуют
Формат: DVDRip, AVI, DivX, AC3
Страна: Франция
Режиссер: Стефан Клавье
Жанр: комедия
Продолжительность: 01:17:09
Год выпуска: 2003
В ролях: Кристиан Клавье, Жюли Гайе, Эдди Митчелл, Ариэль Домбаль, Пьер Монди, Арно Джованинетти, Жан-Клод Дрейфюс, Марта Виллалонга, Манон Горин, Мария Верди, Тони Д'Амарио, Жаки Нерсесян

Описание: Эдгар Ломарк, служащий аудиторской конторы, отправляется на Французскую Ривьеру проверить и оценить имущество Тьерри Ферранда. Однажды вечером Эдгар решает немного поразвлечься и провести ночь с проституткой, найденной через Интернет. Ее зовут Рита и благодаря ей Эдгар оказывается втянутым в неожиданную историю.




Видео: 704x304 (2.32:1), 25 fps, DivX Codec 5.x or 6.x ~2084 kbps avg, 0.39 bit/pixel
Аудио:48 kHz, AC3 Dolby Digital, 3/2 (L,C,R,l,r) + LFE ch, ~448.00 kbps avg




Общее
Полное имя : D:\Торренты\ФИЛЬМЫ торента\Milachka.Rita.2003.DivX.DVDRip.avi
Формат : AVI
Формат/Информация : Audio Video Interleave
Размер файла : 1,37 Гбайт
Продолжительность : 1 ч. 17 м.
Общий поток : 2539 Кбит/сек
Программа кодирования : VirtualDubMod 1.5.4.1 (build 2178/release)
Библиотека кодирования : VirtualDubMod build 2178/release

Видео
Идентификатор : 0
Формат : MPEG-4 Visual
Параметр BVOP формата : 1
Параметр QPel формата : Нет
Параметр GMC формата : Без точки перехода
Параметр матрицы формата : Default (H.263)
Режим смешивания : Сжатый битовый поток
Идентификатор кодека : DX50
Идентификатор кодека/Подсказка : DivX 5
Продолжительность : 1 ч. 17 м.
Битрейт : 2084 Кбит/сек
Ширина : 704 пикс.
Высота : 304 пикс.
Соотношение сторон : 2,35:1
Частота кадров : 25,000 кадр/сек
Цветовое пространство : YUV
Подвыборка цветности : 4:2:0
Битовая глубина : 8 бит
Тип развёртки : Прогрессивная
Метод сжатия : С потерями
Бит/(Пиксели*Кадры) : 0.390
Размер потока : 1,12 Гбайт (82%)
Библиотека кодирования : DivX 6.8.3-6.8.4 (UTC 2008-06-07)

Аудио
Идентификатор : 1
Формат : AC-3
Формат/Информация : Audio Coding 3
Расширение режима : CM (complete main)
Идентификатор кодека : 2000
Продолжительность : 1 ч. 17 м.
Вид битрейта : Постоянный
Битрейт : 448 Кбит/сек
Каналы : 6 каналов
Расположение каналов : Front: L C R, Side: L R, LFE
Частота : 48,0 КГц
Битовая глубина : 16 бит
Метод сжатия : С потерями
Размер потока : 247 Мбайт (18%)
Выравнивание : Разделение по промежуткам
Продолжительность промежутка : 96 мс. (2,40 видеокадра)
Время предзагрузки промежутка : 96 ms
Язык : Russian





Поделиться:




реклама партнёра


Вернуться к началу
 Профиль Отправить личное сообщение  
 
   Похожие торренты   Автор   Торрент   Размер 
В этой теме нет новых непрочитанных сообщений. Ох, уж этот отпуск / Ненавижу отпуск / Je hais les vacances (Стефан Клавье / Stéphane Clavier) [2007г., Франция, комедия, SATRip] MVO

Alfredovich

7 | 4

1.37 ГБ

В этой теме нет новых непрочитанных сообщений. Чико и Рита / Chico & Rita (Тоно Эррандо, Хавьер Марискаль, Фернандо Труэба) [2010, мультфильм, мелодрама, музыка, BDRip 1080p]

Nickolas3435

19 | 3

4.37 ГБ

В этой теме нет новых непрочитанных сообщений. Rita Faltoyano - Жадные До Секса / Les Gloutonnes (2003) DVDRip

salma3

23 | 1

131.26 МБ

В этой теме нет новых непрочитанных сообщений. [ScoreHD.com (PornMegaLoad.com) / 60PlusMilfs.com] Rita Daniels (Rita teaches her daughter`s boyfriend a lesson) [2017 г., GILF, Big Tits, 1080p]

salma3

38 | 13

1.29 ГБ

В этой теме нет новых непрочитанных сообщений. [JacquieetMichelTV.net / Indecentes-Voisines.com] Rita (Rita, 22ans, aide-soignante !) [2015 г., All Sex, Teen, Ebony, Big Ass, Sex, Cum on Ass, French, SiteRip 360p]

friizze

4 | 4

304.55 МБ

В этой теме нет новых непрочитанных сообщений. Rita Faltoyano - Клеопатра / Private Gold 61: Cleopatra (2003) WEBRip | Rus

salma3

4 | 0

311.18 МБ

В этой теме нет новых непрочитанных сообщений. [exploitedcollegegirls.com] luna lovely (ExCoGi has Luna Lovely's First Porn Video) Luna Lovely's First Porn Video [2017 г., all sex, anal, toys, 720p]

salma3

0 | 0

2 ГБ


Начать новую тему Ответить на тему  [ 1 сообщение ] 




Для Мосгорсуда, Роскомнадзора и рекламодателей:: mosgorsud-torrent[собачка]yandex.ru