Торрент файл
скачать торрент магнет ссылка Добавлен: 15 янв 2012, 21:29
Размер: 2.07 ГБ
Сидеров: 27
Личеров: 6
Автор

СообщениеДобавлено: 15 янв 2012, 21:29 

Не в сети
Супермодератор
Аватара пользователя
Дата регистрации:
11 апр 2010, 18:10
Спасибо: 5799 / 7
Сообщения: 56779
Безбрачная неделя / Hall Pass [EXTENDED]

Перевод: Профессиональный (полное дублирование)[лицензия + Ddok63], cубтитры:русские, английские
Формат: HDRip-AVC, MKV, H.264, AC3
Страна: США
Режиссер: Бобби Фаррелли, Питер Фаррелли
Жанр: комедия
Продолжительность: 01:51:34
Год выпуска: 2011

В ролях: Оуэн Уилсон, Джейсон Судейкис, Дженна Фишер, Кристина Эпплгейт, Никки Вилан, Ричард Дженкинс, Стефен Мерчант, Ларри Джо Кэмпбелл, Брюс Томас, Тайлер Хёхлин

Описание: Главный герой получает от своей супруги разрешение на свободные отношения с другими женщинами. Похожая ситуация возникает и в семье его лучшего друга. Когда жены героев также решают воспользоваться подобным «пропуском», история принимает новый оборот.

[/field]

Видео: 1280 x 536(2.35:1), 23.976 fps, AVC, х264, High@L4.1, ~2096 Kbps0.127 bit/pixel

Аудио#1: Русский:48 kHz, AC3,6ch., ~384 kbps Профессиональный (полное дублирование)
Аудио#2: Английский:48 kHz, AC3,2ch., ~128 kbps [Оригинал]

Доп. информация: Расширенная версия фильма. Есть одна сцена которая переведена только субтитрами. Имеются вставки одноголосого перевода.
Релиз группа: FireBit

General
Unique ID: 237194051197285837237250795884703165815 (0xB271E99F0C691B30B26AC643A090AD77)
Complete name: E:\Загрузки\Безбрачная.неделя.2011.EXTENDED.D.Rus.Eng.720p.BDRip.x264.FireBit.mkv
Format: Matroska
File size: 2.07 GiB
Duration: 1h 51mn
Overall bit rate: 2 661 Kbps
Movie name: Безбрачная неделя / Hall Pass [EXTENDED] (2011) BDRip-AVC от FireBit
Encoded date: UTC 2011-06-18 00:38:22
Writing application: mkvmerge v2.3.0 ('Freak U') built on Sep8 2008 18:32:16
Writing library: libebml v0.7.7 + libmatroska v0.8.1

Video
ID: 1
Format: AVC
Format/Info: Advanced Video Codec
Format profile: High@L4.1
Format settings, CABAC: Yes
Format settings, ReFrames: 3 frames
Format settings, GOP: M=2, N=13
Codec ID: V_MPEG4/ISO/AVC
Duration: 1h 51mn
Bit rate mode: Variable
Bit rate: 2 096 Kbps
Maximum bit rate: 20.0 Mbps
Width: 1 280 pixels
Height: 536 pixels
Display aspect ratio: 2.35:1
Frame rate: 23.976 fps
Color space: YUV
Chroma subsampling: 4:2:0
Bit depth: 8 bits
Scan type: Progressive
Bits/(Pixel*Frame): 0.127
Stream size: 1.63 GiB (79%)
Title: http://firebit.org
Language: English
Color primaries: BT.709-5, BT.1361, IEC 61966-2-4, SMPTE RP177
Transfer characteristics: BT.709-5, BT.1361
Matrix coefficients: BT.709-5, BT.1361, IEC 61966-2-4 709, SMPTE RP177

Audio #1
ID: 2
Format: AC-3
Format/Info: Audio Coding 3
Mode extension: CM (complete main)
Codec ID: A_AC3
Duration: 1h 51mn
Bit rate mode: Constant
Bit rate: 384 Kbps
Channel(s): 6 channels
Channel positions: Front: L C R, Side: L R, LFE
Sampling rate: 48.0 KHz
Bit depth: 16 bits
Compression mode: Lossy
Delay relative to video: 23ms
Stream size: 306 MiB (14%)
Title: http://firebit.org
Language: Russian

Audio #2
ID: 3
Format: AC-3
Format/Info: Audio Coding 3
Mode extension: CM (complete main)
Codec ID: A_AC3
Duration: 1h 51mn
Bit rate mode: Constant
Bit rate: 128 Kbps
Channel(s): 2 channels
Channel positions: Front: L R
Sampling rate: 48.0 KHz
Bit depth: 16 bits
Compression mode: Lossy
Delay relative to video: 23ms
Stream size: 102 MiB (5%)
Title: http://firebit.org
Language: English

Text #1
ID: 4
Format: UTF-8
Codec ID: S_TEXT/UTF8
Codec ID/Info: UTF-8 Plain Text
Title: http://firebit.org
Language: English

Text #2
ID: 5
Format: UTF-8
Codec ID: S_TEXT/UTF8
Codec ID/Info: UTF-8 Plain Text
Title: http://firebit.org
Language: English

Text #3
ID: 6
Format: UTF-8
Codec ID: S_TEXT/UTF8
Codec ID/Info: UTF-8 Plain Text
Title: http://firebit.org
Language: English








Поделиться:




реклама партнёра


Вернуться к началу
 Профиль Отправить личное сообщение  
 
   Похожие торренты   Автор   Торрент   Размер 
В этой теме нет новых непрочитанных сообщений. Тупой и еще тупее 2 / Dumb and Dumber To (Питер Фаррелли, Бобби Фаррелли) [Комедия, 2014] HDRip, dub [Официальный]

Dracon

44 | 2

2.06 ГБ

В этой теме нет новых непрочитанных сообщений. Тупой и еще тупее 2 / Dumb and Dumber To (Питер Фаррелли, Бобби Фаррелли) [Комедия, 2014] BDRip 720p, dub [официальный]

Dracon

27 | 4

5.66 ГБ

В этой теме нет новых непрочитанных сообщений. Hall Pass Ass/ Безбрачная неделя задницы (Barrett Blade, Wicked)(Alexis Monroe, Christy Mack, Jessa Rhodes, Kendra Lust, Staci Silverstone, Stevie Shae) [2012 г., Gonzo, WEB-DL 400p]

Mitya495

248 | 10

1.34 ГБ

В этой теме нет новых непрочитанных сообщений. Этим утром в Нью-Йорке / The Angriest Man in Brooklyn [EXTENDED] [драма, комедия, 2014] HDRip, Dub [Лицензия]

Dracon

51 | 3

1.46 ГБ

В этой теме нет новых непрочитанных сообщений. Хоббит: Нежданное путешествие (Расширенная Версия) / The Hobbit: An Unexpected Journey (Extended Cut) (Питер Джексон) [2012, Фэнтези, приключения, экранизация, BDRip-AVC 1080p] [DD5.1] [MVO] [ Дублированный + Subs Rus]

Nikolai.Baranov

13 | 2

8.61 ГБ

В этой теме нет новых непрочитанных сообщений. Зал Джимми / Jimmy's Hall [Драма, история, 2014] HDRip, avo

Dracon

24 | 6

1.57 ГБ

В этой теме нет новых непрочитанных сообщений. Descendant - Pass The Ammunition [2011, Hard Rock, MP3]

PriZraK

0 | 1

43.99 МБ


Начать новую тему Ответить на тему  [ 1 сообщение ] 




Для Мосгорсуда, Роскомнадзора и рекламодателей:: mosgorsud-torrent[собачка]yandex.ru