Торрент файл
скачать торрент магнет ссылка Добавлен: 15 янв 2012, 21:24
Размер: 2 ГБ
Сидеров: 13
Личеров: 6
Автор

СообщениеДобавлено: 15 янв 2012, 21:24 

Не в сети
Супермодератор
Аватара пользователя
Дата регистрации:
11 апр 2010, 18:10
Спасибо: 5801 / 7
Сообщения: 56779
Ноги-руки за любовь / Burke and Hare

Перевод: Профессиональный (полное дублирование)[Лицензия], cубтитры:русские, английские
Формат: HDRip-AVC, MKV, H.264, AC3
Страна: Великобритания
Режиссер: Джон Лэндис
Жанр: триллер, комедия
Продолжительность: 01:31:27
Год выпуска: 2010

В ролях: Саймон Пегг, Энди Серкис, Айла Фишер, Том Уилкинсон, Тим Карри, Кристофер Ли, Хью Бонневилль, Стефен Мерчант, Дженни Агаттер, Поллианна Макинтош

Описание: Черная комедия, действие которой происходит в 19 веке, поведает нам историю двух грабителей могил, которые находят для себя прибыль в похищении трупов и доставки их в Эдинбургскую военно-медицинскую школу

[/field]



Видео: 1280x528 (2.40:1), 24.000 fps, AVC, х264, High@L4.0, ~2 419 Kbps 0.161 bit/pixel

Аудио #1:Русский:48.0 KHz,AC3,6 ch.,~448 kbps avg Профессиональный (полное дублирование)
Аудио #2:Английский:48.0 KHz,AC3,2 ch.,~128 kbps avg [Оригинал]

Релиз группа:FireBit

Доп. информация: Премьера (РФ) 23 июня 2011

General
Unique ID: 180612580424345521417485759859335679273 (0x87E0B7BB01711A7FA4951959AC5CCD29)
Complete name: E:\Загрузки\Руки.ноги.за.любовь.2010.D.Rus.Eng.BDRip.x264.FireBit.mkv
Format: Matroska
File size: 2.00 GiB
Duration: 1h 31mn
Overall bit rate: 2 925 Kbps
Movie name: Руки-ноги за любовь / Burke and Hare (2010) BDRip-AVC от FireBit
Encoded date: UTC 2011-07-16 04:53:50
Writing application: mkvmerge v2.3.0 ('Freak U') built on Sep8 2008 18:32:16
Writing library: libebml v0.7.7 + libmatroska v0.8.1

Video
ID: 1
Format: AVC
Format/Info: Advanced Video Codec
Format profile: High@L4.0
Format settings, CABAC: Yes
Format settings, ReFrames: 12 frames
Codec ID: V_MPEG4/ISO/AVC
Duration: 1h 31mn
Bit rate: 2 419 Kbps
Width: 1 280 pixels
Height: 528 pixels
Display aspect ratio: 2.40:1
Frame rate: 24.000 fps
Color space: YUV
Chroma subsampling: 4:2:0
Bit depth: 8 bits
Scan type: Progressive
Bits/(Pixel*Frame): 0.161
Stream size: 1.64 GiB (82%)
Writing library: x264 core 112 r1867 22bfd31
Encoding settings: cabac=1 / ref=12 / deblock=1:0:0 / analyse=0x3:0x133 / me=umh / subme=10 / psy=1 / psy_rd=1.00:0.00 / mixed_ref=1 / me_range=24 / chroma_me=1 / trellis=2 / 8x8dct=1 / cqm=0 / deadzone=21,11 / fast_pskip=1 / chroma_qp_offset=-2 / threads=9 / sliced_threads=0 / nr=0 / decimate=1 / interlaced=0 / constrained_intra=0 / bframes=3 / b_pyramid=2 / b_adapt=2 / b_bias=0 / direct=3 / weightb=1 / open_gop=0 / weightp=2 / keyint=96 / keyint_min=9 / scenecut=40 / intra_refresh=0 / rc_lookahead=60 / rc=2pass / mbtree=1 / bitrate=2619 / ratetol=1.0 / qcomp=0.60 / qpmin=0 / qpmax=51 / qpstep=4 / cplxblur=20.0 / qblur=0.5 / vbv_maxrate=20000 / vbv_bufsize=25000 / nal_hrd=none / ip_ratio=1.40 / aq=1:1.00
Language: English

Audio #1
ID: 2
Format: AC-3
Format/Info: Audio Coding 3
Mode extension: CM (complete main)
Codec ID: A_AC3
Duration: 1h 31mn
Bit rate mode: Constant
Bit rate: 384 Kbps
Channel(s): 6 channels
Channel positions: Front: L C R, Side: L R, LFE
Sampling rate: 48.0 KHz
Bit depth: 16 bits
Compression mode: Lossy
Stream size: 251 MiB (12%)
Language: Russian

Audio #2
ID: 3
Format: AC-3
Format/Info: Audio Coding 3
Mode extension: CM (complete main)
Codec ID: A_AC3
Duration: 1h 31mn
Bit rate mode: Constant
Bit rate: 128 Kbps
Channel(s): 2 channels
Channel positions: Front: L R
Sampling rate: 48.0 KHz
Bit depth: 16 bits
Compression mode: Lossy
Stream size: 83.7 MiB (4%)
Language: English

Text #1
ID: 4
Format: UTF-8
Codec ID: S_TEXT/UTF8
Codec ID/Info: UTF-8 Plain Text
Language: English

Text #2
ID: 5
Format: UTF-8
Codec ID: S_TEXT/UTF8
Codec ID/Info: UTF-8 Plain Text
Language: Russian

Text #3
ID: 6
Format: UTF-8
Codec ID: S_TEXT/UTF8
Codec ID/Info: UTF-8 Plain Text
Language: English

Text #4
ID: 7
Format: UTF-8
Codec ID: S_TEXT/UTF8
Codec ID/Info: UTF-8 Plain Text
Language: English










Поделиться:




реклама партнёра


Вернуться к началу
 Профиль Отправить личное сообщение  
 
   Похожие торренты   Автор   Торрент   Размер 
В этой теме нет новых непрочитанных сообщений. Руки-ноги за любовь / Burke and Hare [триллер, комедия, 2010] BDRip 720p, Dub+Dvo+Sub

salma3

133 | 6

6.3 ГБ

В этой теме нет новых непрочитанных сообщений. Поездка в Америку / Coming to America (Джон Лэндис) [Комедия, Мелодрама, 1988] BDRip 720p, Mvo+Dvo+Avo+Sub

Dracon

10 | 3

9.05 ГБ

В этой теме нет новых непрочитанных сообщений. Чистые руки / Schone Handen [Триллер, драма, криминал, 2015] HDRip, dvo

Dracon

160 | 6

1.37 ГБ

В этой теме нет новых непрочитанных сообщений. Чистые руки / Schone Handen [Триллер, драма, криминал, 2015] HDRip, Mvo

Dracon

168 | 20

1.37 ГБ

В этой теме нет новых непрочитанных сообщений. Любовь по рецепту и без / Любовь, секс и химия / Better Living Through Chemistry [комедия, драма, 2014] HDRip, dub [Чистый звук]

Dracon

114 | 3

1.45 ГБ

В этой теме нет новых непрочитанных сообщений. Любовь, сбивающая с ног / Punch-Drunk Love [триллер, драма, мелодрама, комедия, 2002] HDRip, Dvo

salma3

0 | 0

1.45 ГБ

В этой теме нет новых непрочитанных сообщений. Любовь в словах и картинах / Любовь в словах и картинках / Words and Pictures [драма, мелодрама, комедия, 2013] HDRip, Dub [НТВ]

Dracon

244 | 18

1.45 ГБ


Начать новую тему Ответить на тему  [ 1 сообщение ] 




Для Мосгорсуда, Роскомнадзора и рекламодателей:: mosgorsud-torrent[собачка]yandex.ru