Торрент файл
скачать торрент магнет ссылка Добавлен: 15 янв 2012, 21:22
Размер: 1.45 ГБ
Сидеров: 70
Личеров: 9
Автор

СообщениеДобавлено: 15 янв 2012, 21:22 

Не в сети
Супермодератор
Аватара пользователя
Дата регистрации:
11 апр 2010, 18:10
Спасибо: 5802 / 7
Сообщения: 56779
Типа крутые легавые / Hot Fuzz


Перевод: Профессиональный (полное дублирование), cубтитры: отсутствуют
Формат: HDRip-AVC, MKV, H.264, AC3
Страна: США, Франция, Великобритания
Режиссер: Эдгар Райт
Жанр: боевик, комедия, детектив
Продолжительность: 02:00:52
Год выпуска: 2007

В ролях: Саймон Пегг, Мартин Фриман, Билл Найи, Джо Корниш, Эрик Мэйсон, Билли Уайтлоу, Ник Фрост, Питер Уайт

Описание: Главный лондонский полицейский, констебль Николас Эйнджел переведен из города в тихий сельский городок Сэндфорд. Он пытается привыкнуть к этой мирной, и на первый взгляд лишенной преступности жизни, а также к туповатому напарнику Дэнни Баттерману. Однако серия ужасных происшествий потрясает городок, заставляя Эйнджела убедиться в том, что Сэндфорд — совсем не такой, каким кажется на первый взгляд. Мечты Дэнни о бурной, взрывоопасной, полной стрельбы и погонями жизни становятся все более и более реальными. Настало время для провинциальных полицейских вершить правосудие больших городов!



Видео: 960 x 408 (2.35:1), 23.976 fps, AVC, х264, High@L4.1, ~ 1337 Kbps, 0.142 bit/pixel
Аудио: 48 kHz, AC3 Dolby Digital, 3/2 (L,C,R,l,r) + LFE ch, ~384 kbps


Рип: jeenart

General
Unique ID: 202183116285264519848347818118845294701 (0x981B0D422195217C9A51AFC49DD7E86D)
Complete name: F:\Мои релизы\Все релизы 10\tipa_krutie_legavie_[tfile.ru].mkv
Format: Matroska
File size: 1.45 GiB
Duration: 2h 0mn
Overall bit rate: 1 722 Kbps
Encoded date: UTC 2011-07-24 21:43:28
Writing application: mkvmerge v4.6.0 ('Still Crazy After All These Years') сборка от Apr1 2011 21:01:49
Writing library: libebml v1.2.0 + libmatroska v1.1.0

Video
ID: 1
Format: AVC
Format/Info: Advanced Video Codec
Format profile: High@L4.1
Format settings, CABAC: Yes
Format settings, ReFrames: 8 frames
Codec ID: V_MPEG4/ISO/AVC
Duration: 2h 0mn
Bit rate: 1 337 Kbps
Width: 960 pixels
Height: 408 pixels
Display aspect ratio: 2.35:1
Frame rate: 23.976 fps
Color space: YUV
Chroma subsampling: 4:2:0
Bit depth: 8 bits
Scan type: Progressive
Bits/(Pixel*Frame): 0.142
Stream size: 1.10 GiB (76%)
Writing library: x264 core 115 r1937 aa21558
Encoding settings: cabac=1 / ref=8 / deblock=1:-1:-1 / analyse=0x3:0x133 / me=umh / subme=9 / psy=1 / psy_rd=1.00:0.10 / mixed_ref=1 / me_range=16 / chroma_me=1 / trellis=2 / 8x8dct=1 / cqm=0 / deadzone=21,11 / fast_pskip=1 / chroma_qp_offset=-3 / threads=6 / sliced_threads=0 / nr=0 / decimate=1 / interlaced=0 / bluray_compat=0 / constrained_intra=0 / bframes=3 / b_pyramid=2 / b_adapt=2 / b_bias=0 / direct=3 / weightb=1 / open_gop=0 / weightp=2 / keyint=250 / keyint_min=23 / scenecut=40 / intra_refresh=0 / rc_lookahead=60 / rc=2pass / mbtree=1 / bitrate=1337 / ratetol=1.0 / qcomp=0.60 / qpmin=0 / qpmax=69 / qpstep=4 / cplxblur=20.0 / qblur=0.5 / ip_ratio=1.40 / aq=1:1.00

Audio
ID: 2
Format: AC-3
Format/Info: Audio Coding 3
Mode extension: CM (complete main)
Codec ID: A_AC3
Duration: 2h 0mn
Bit rate mode: Constant
Bit rate: 384 Kbps
Channel(s): 6 channels
Channel positions: Front: L C R, Side: L R, LFE
Sampling rate: 48.0 KHz
Bit depth: 16 bits
Compression mode: Lossy
Stream size: 332 MiB (22%)






















Поделиться:




реклама партнёра


Вернуться к началу
 Профиль Отправить личное сообщение  
 
   Похожие торренты   Автор   Торрент   Размер 
В этой теме нет новых непрочитанных сообщений. Крутые парни / Крутые ребята / Крутые мужики / Tough Guys [криминал, комедия, 1986] WEB-DL 720p, Dub+Mvo+Sub

salma3

4 | 1

3.36 ГБ

В этой теме нет новых непрочитанных сообщений. Типа копы / Let's Be Cops [Боевик, Драма, Криминал, 2012] HDRip, dub [звук с TS]

Dracon

347 | 6

1.37 ГБ

В этой теме нет новых непрочитанных сообщений. Типа копы / Let's Be Cops [Комедия, 2014] HDRip, Dub [iTunes]

Dracon

1030 | 21

1.37 ГБ

В этой теме нет новых непрочитанных сообщений. Типа копы / Let's Be Cops [Комедия, 2014] HDRip, dub [Чистый звук]

Dracon

723 | 12

2.05 ГБ

В этой теме нет новых непрочитанных сообщений. Крутые чуваки / Bad Asses [Боевик, 2014] HDRip, avo

Dracon

1222 | 34

1.45 ГБ

В этой теме нет новых непрочитанных сообщений. Крутые меры / Bastille Day [боевик, драма, 2016] HDRip, Avo

salma3

5 | 0

1.45 ГБ

В этой теме нет новых непрочитанных сообщений. Крутые меры / Bastille Day [Боевик, драма, 2016] HDRip, dub [iTunes]

marya111

4915 | 669

1.37 ГБ


Начать новую тему Ответить на тему  [ 1 сообщение ] 




Для Мосгорсуда, Роскомнадзора и рекламодателей:: mosgorsud-torrent[собачка]yandex.ru