Торрент файл
скачать торрент магнет ссылка Добавлен: 15 янв 2012, 21:22
Размер: 701.7 МБ
Сидеров: 2
Личеров: 5
Автор

СообщениеДобавлено: 15 янв 2012, 21:22 

Не в сети
Супермодератор
Аватара пользователя
Дата регистрации:
11 апр 2010, 18:10
Спасибо: 5801 / 7
Сообщения: 56779
Национальная безопасность / National Security

Перевод: Профессиональный (полное дублирование), cубтитры: отсутствуют
Формат: LowHDRip-AVC, MKV, H.264, MP3
Страна: США
Режиссер: Дэннис Дуган
Жанр: комедия, боевик
Продолжительность: 01:28:20
Год выпуска: 2003

В ролях: Мартин Лоуренс, Стив Зан, Колм Фиор, Билл Дьюк, Эрик Робертс, Тимоти Басфилд, Робин Ли, Мэтт МакКой, Бретт Каллен, Клио Кинг

Описание: Стать полицейским — мечта многих мальчишек. Стать офицером — мечта многих курсантов полицейской академии. А быть офицером службы «Национальной безопасности» означает только одно — быть неудачником. Эрл Монтгомери очутился там за систематическое нарушение дисциплины — его сочли недостойным носить звание полицейского. Незадолго до этого он подставил Хэнка Рафферти. По иронии судьбы они становятся напарниками, и отношения между ними скорее напоминают боевые действия. Своими выездами на дежурство они умудряются «достать» весь город. И теперь в городе найдется немало желающих «замочить» эту парочку. Если только бравые блюстители порядка первыми не перебьют друг друга!



Видео: 720X384 (1.875:1), 23.976 fps, AVC, High@L3.1, x264, ~979 kbps avg, 0.148 bit/pixel
Аудио: 48 kHz, MP3, 2 ch, ~136 kbps avg

Общее
Уникальный идентификатор: 217914666480257826620851531322100088840 (0xA3F0D690F8046571AFF66933A855000
Полное имя: C:\Users\Радик\Downloads\national_security_[tfile.ru].mkv
Формат: Matroska
Версия формата: Version 2
Размер файла: 702 Мбайт
Продолжительность: 1 ч. 28 м.
Общий поток: 1110 Кбит/сек
Дата кодирования: UTC 2010-01-27 06:44:02
Программа кодирования: mkvmerge v3.1.0 ('Happy up here') built on Jan 19 2010 12:09:24
Библиотека кодирования: libebml v0.7.9 + libmatroska v0.8.1

Видео
Идентификатор: 1
Формат: AVC
Формат/Информация: Advanced Video Codec
Профиль формата: High@L3.1
Параметр CABAC формата: Да
Параметр ReFrames формата: 16 кадров
Идентификатор кодека: V_MPEG4/ISO/AVC
Продолжительность: 1 ч. 28 м.
Битрейт: 979 Кбит/сек
Ширина: 720 пикс.
Высота: 384 пикс.
Соотношение сторон: 1,875
Частота кадров: 23,976 кадр/сек
Цветовое пространство: YUV
Подвыборка цветности: 4:2:0
Битовая глубина: 8 бит
Тип развёртки: Прогрессивная
Бит/(Пиксели*Кадры): 0.148
Размер потока: 602 Мбайт (86%)
Библиотека кодирования: x264 core 84 r1400kGIT 20fa784
Настройки программы: cabac=1 / ref=16 / deblock=1:-1:-1 / analyse=0x3:0x133 / me=tesa / subme=10 / psy=1 / psy_rd=1.0:0.0 / mixed_ref=1 / me_range=24 / chroma_me=1 / trellis=2 / 8x8dct=1 / cqm=0 / deadzone=21,11 / fast_pskip=0 / chroma_qp_offset=-2 / threads=3 / sliced_threads=0 / nr=0 / decimate=0 / mbaff=0 / constrained_intra=0 / bframes=16 / b_pyramid=2 / b_adapt=2 / b_bias=0 / direct=3 / wpredb=1 / wpredp=2 / keyint=250 / keyint_min=25 / scenecut=40 / intra_refresh=0 / rc_lookahead=60 / rc=2pass / mbtree=1 / bitrate=979 / ratetol=1.0 / qcomp=0.60 / qpmin=10 / qpmax=51 / qpstep=4 / cplxblur=20.0 / qblur=0.5 / ip_ratio=1.40 / aq=1:1.00 / zones=119098,127078,q=40 / pulldown=0 / nal_hrd=0
Язык: English

Аудио
Идентификатор: 2
Формат: MPEG Audio
Версия формата: Version 1
Профиль формата: Layer 3
Режим: Joint stereo
Расширение режима: MS Stereo
Идентификатор кодека: A_MPEG/L3
Идентификатор кодека/Подсказка: MP3
Продолжительность: 1 ч. 24 м.
Вид битрейта: Переменный
Битрейт: 136 Кбит/сек
Каналы: 2 канала
Частота: 48,0 КГц
Метод сжатия: С потерями
Размер потока: 81,9 Мбайт (12%)
Библиотека кодирования: LAME3.98r
Настройки программы: -m j -V 4 -q 3 -lowpass 17 --abr 136
Язык: Russian

Поделиться:




реклама партнёра


Вернуться к началу
 Профиль Отправить личное сообщение  
 
   Похожие торренты   Автор   Торрент   Размер 
В этой теме нет новых непрочитанных сообщений. Трудный Ребенок: Трилогия / Problem Child: Trilogy (Дэннис Дуган,Брайан Левант,Грег Биман) [1990-1995, Комедия, Семейный, DVDRip]

marya111

0 | 0

4.27 ГБ

В этой теме нет новых непрочитанных сообщений. Национальная трасса №4 / Udhayam NH4 [боевик, триллер, 2013] DVDRip, Mvo

salma3

9 | 5

1.81 ГБ

В этой теме нет новых непрочитанных сообщений. Переполох в общаге / National Lampoon Presents Dorm Daze [Мелодрама, комедия, криминал, 2003] BDRip 1080p, Dub+Dvo+Avo

salma3

12 | 5

6.48 ГБ

В этой теме нет новых непрочитанных сообщений. Безопасность не гарантируется / Safety Not Guaranteed [фантастика, драма, мелодрама, комедия, 2012] BDRip-AVC, Mvo [iPad]

salma3

7 | 3

1.87 ГБ

В этой теме нет новых непрочитанных сообщений. Констебль / The Constable (Дэннис Ло / Dennis Law) [2013г., боевик, криминал, HDRip] dvo

Alfredovich

50 | 2

1.39 ГБ

В этой теме нет новых непрочитанных сообщений. Смертельный шаг / Fatal Move / Duo shuai (Дэннис Ло / Dennis Law) [2008г., Гонконг, боевик, криминал, HDRip] AVO

Alfredovich

5 | 2

749.21 МБ

В этой теме нет новых непрочитанных сообщений. Первая Российская национальная музыкальная премия [11.12] (Россия) [Концерт, музыкально-развлекательная телепередача, 2015] HDTV 1080i

Dracon

74 | 14

10.92 ГБ


Начать новую тему Ответить на тему  [ 1 сообщение ] 




Для Мосгорсуда, Роскомнадзора и рекламодателей:: mosgorsud-torrent[собачка]yandex.ru