Торрент файл
скачать торрент магнет ссылка Добавлен: 15 янв 2012, 21:22
Размер: 724.34 МБ
Сидеров: 1
Личеров: 5
Автор

СообщениеДобавлено: 15 янв 2012, 21:22 

Не в сети
Супермодератор
Аватара пользователя
Дата регистрации:
11 апр 2010, 18:10
Спасибо: 5802 / 7
Сообщения: 56779
Это не то, что ты думаешь, дорогая / To nie tak jak myslisz, kotku

Перевод: Профессиональный (одноголосый) Вадим Белов, cубтитры: отсутствуют
Формат: DVDRip, AVI, XviD, AC3
Страна: Польша
Режиссер: Славомир Крыньский
Жанр: комедия
Продолжительность: 01:41:09
Год выпуска: 2008

В ролях: Ян Фрыч, Катажина Фигура, Томаш Кот, Михал Байор, Славомир Ожеховский, Ежи Схейбаль

Описание: Главный хирург Польши доктор Гашински организовал съезд на котором собирается объявить своего преемника. Известный нейрохирург Филип Хофман приезжает на этот съезд со своей любовницей. Гашинский, считая Хофмана честным и порядочным, сообщает ему, что преемником будет он. В то же время он принимает любовницу Хофмана за его жену. В этот же отель приезжает ассистент Хофмана который ждет приезда невесты и настоящая жена Хофмана со своим любовником который только что грабанул банк. Чтобы избежать скандала Хофман уговаривает ассистента выдать его любовницу за свою невесту. С этого начинается жуткая путаница в которой все выдают себя не за тех кем являются и врут чем дальше тем больше.



Видео: 598x340 (1.76:1), 25 fps,~550 kbps avg, 0.11 bit/pixel
Аудио: 48 kHz, AC3 Dolby Digital, 3/2 (L,C,R,l,r) + LFE ch, ~448.00 kbps avg
Общее
Полное имя: C:\Новая папка\Это не то, что ты думаешь.avi
Формат: AVI
Формат/Информация: Audio Video Interleave
Размер файла: 724 Мбайт
Продолжительность: 1 ч. 40 м.
Общий поток: 1008 Кбит/сек
Программа кодирования: VirtualDubMod 1.5.10.2 (build 2540/release)
Библиотека кодирования: VirtualDub build 30009/release

Видео
Идентификатор: 0
Формат: MPEG-4 Visual
Профиль формата: Simple@L1
Параметр BVOP формата: Нет
Параметр QPel формата: Нет
Параметр GMC формата: Без точки перехода
Параметр матрицы формата: Default (H.263)
Идентификатор кодека: XVID
Идентификатор кодека/Подсказка: XviD
Продолжительность: 1 ч. 40 м.
Битрейт: 550 Кбит/сек
Ширина: 598 пикс.
Высота: 340 пикс.
Соотношение сторон: 16:9
Частота кадров: 25,000 кадр/сек
Цветовое пространство: YUV
Подвыборка цветности: 4:2:0
Битовая глубина: 8 бит
Тип развёртки: Прогрессивная
Метод сжатия: С потерями
Бит/(Пиксели*Кадры): 0.108
Размер потока: 395 Мбайт (55%)
Библиотека кодирования: Lavc51.46.0

Аудио
Идентификатор: 1
Формат: AC-3
Формат/Информация: Audio Coding 3
Расширение режима: CM (complete main)
Идентификатор кодека: 2000
Продолжительность: 1 ч. 40 м.
Вид битрейта: Постоянный
Битрейт: 448 Кбит/сек
Канал(ы): 6 канала(ов)
Расположение каналов: Front: L C R, Side: L R, LFE
Частота: 48,0 КГц
Битовая глубина: 16 бит
Метод сжатия: С потерями
Размер потока: 322 Мбайт (44%)
Выравнивание: Разделение по промежуткам
Продолжительность промежутка: 40мс. (1,00 видеокадр)
Время предзагрузки промежутка: 500 ms





Поделиться:




реклама партнёра


Вернуться к началу
 Профиль Отправить личное сообщение  
 
   Похожие торренты   Автор   Торрент   Размер 
В этой теме нет новых непрочитанных сообщений. Дорогая, похоже, я тебя убил / Kochanie, chyba cie zabilem (Куба Несьчеров / Jakub Niescierow) [2014г., Польша, комедия, DVDRip] avo

Alfredovich

509 | 25

1.56 ГБ

В этой теме нет новых непрочитанных сообщений. Дорогая Элеонора / Dear Eleanor [комедия, приключения, драма, 2016] WEB-DLRip, Mvo [iTunes]

salma3

164 | 4

1.37 ГБ

В этой теме нет новых непрочитанных сообщений. Убийства - мой конёк, дорогая / Mord ist mein Geschäft, Liebling [комедия, мелодрама, криминал, 2009] BDRip 720p, Dvo+sub

salma3

25 | 3

4.76 ГБ

В этой теме нет новых непрочитанных сообщений. Mommy Dear Ass / Дорогая Мамочкина Задница (Zak Wylde / Combat Zone) (Darryl Hanah, Kayla Synz, Kelly Leigh, Porscha Ride, Syren Demer...) [2007 г., All Sex, Anal, Oral, Gonzo, BigTits, Pantyhose, MILF's, DVDRip 480p] Split Scenes

friizze

8 | 2

914.1 МБ

В этой теме нет новых непрочитанных сообщений. Маша и медведь: Дорогая передача [49] (Олег Кузовков, Владислав Байрамгулов) [Мультсериал, сказка, детский, семейный. 2014] WEBRip

Dracon

444 | 8

98.12 МБ

В этой теме нет новых непрочитанных сообщений. Повышение / The Promotion [Комедия, 2008] DVDRip, Mvo

salma3

0 | 2

1.37 ГБ

В этой теме нет новых непрочитанных сообщений. Алмазный пес / Dog Gone [Комедия, семейный, 2008] DVDRip, Dvo

salma3

1 | 4

1.46 ГБ


Начать новую тему Ответить на тему  [ 1 сообщение ] 




Для Мосгорсуда, Роскомнадзора и рекламодателей:: mosgorsud-torrent[собачка]yandex.ru