Торрент файл
скачать торрент магнет ссылка Добавлен: 15 янв 2012, 21:21
Размер: 1.45 ГБ
Сидеров: 18
Личеров: 5
Автор

СообщениеДобавлено: 15 янв 2012, 21:21 

Не в сети
Супермодератор
Аватара пользователя
Дата регистрации:
11 апр 2010, 18:10
Спасибо: 5963 / 7
Сообщения: 56762
Так себе каникулы / Old Dogs


Перевод: Профессиональный (полное дублирование), cубтитры: отсутствуют
Формат: HDRip-AVC, MKV, H.264, AC3
Страна: США
Режиссер: Уолт Бекер
Жанр: комедия, семейный
Продолжительность: 01:28:10
Год выпуска: 2009

В ролях: Джон Траволта, Джастин Лонг, Робин Уильямс, Сет Грин, Келли Престон, Мэтт Диллон, Лори Лафлин, Дакс Шепард, Берни Мак, Рита Уилсон, Лора Аллен, Коннер Рэйберн, ДиРэй Дэвис, Алекса Хэвинс, Анджелина Очелло

Описание: Двое старых приятелей и деловых партнеров внезапно оказываются в ситуации, когда им приходится заняться воспитанием двух шумных близнецов-семилеток. Более того, переполох не ограничивается домашними заботами. Детишек надо еще вывезти отдыхать в летний лагерь, а там и близняшки, и их опекуны оказываются во власти придирчивого вожатого — и все это накануне важной сделки, от которой зависит будущее предприятия горе-опекунов. Справятся ли закоренелые холостяки с этой непростой ситуацией?



Видео: 976 x 520 (1:87:1), 23.976 fps, AVC, х264, High@L4.1, ~ 1975 Kbps, 0.162 bit/pixel
Аудио: 48 kHz, AC3 Dolby Digital, 3/2 (L,C,R,l,r) + LFE ch, ~384 kbps


Рип: jeenart

General
Unique ID: 189150409131425512422237582394287411276 (0x8E4D0B2F86845AD19A087F68383B504C)
Complete name: F:\Мои релизы\Все релизы 10\tak_sebe_kanikylu_[tfile.ru].mkv
Format: Matroska
File size: 1.45 GiB
Duration: 1h 28mn
Overall bit rate: 2 360 Kbps
Encoded date: UTC 2011-07-27 12:59:22
Writing application: mkvmerge v4.6.0 ('Still Crazy After All These Years') сборка от Apr1 2011 21:01:49
Writing library: libebml v1.2.0 + libmatroska v1.1.0

Video
ID: 1
Format: AVC
Format/Info: Advanced Video Codec
Format profile: High@L4.1
Format settings, CABAC: Yes
Format settings, ReFrames: 8 frames
Codec ID: V_MPEG4/ISO/AVC
Duration: 1h 28mn
Bit rate: 1 975 Kbps
Width: 976 pixels
Height: 520 pixels
Display aspect ratio: 1.877
Frame rate: 23.976 fps
Color space: YUV
Chroma subsampling: 4:2:0
Bit depth: 8 bits
Scan type: Progressive
Bits/(Pixel*Frame): 0.162
Stream size: 1.19 GiB (82%)
Writing library: x264 core 115 r1937 aa21558
Encoding settings: cabac=1 / ref=8 / deblock=1:-1:-1 / analyse=0x3:0x133 / me=umh / subme=9 / psy=1 / psy_rd=1.00:0.10 / mixed_ref=1 / me_range=16 / chroma_me=1 / trellis=2 / 8x8dct=1 / cqm=0 / deadzone=21,11 / fast_pskip=1 / chroma_qp_offset=-3 / threads=6 / sliced_threads=0 / nr=0 / decimate=1 / interlaced=0 / bluray_compat=0 / constrained_intra=0 / bframes=3 / b_pyramid=2 / b_adapt=2 / b_bias=0 / direct=3 / weightb=1 / open_gop=0 / weightp=2 / keyint=250 / keyint_min=23 / scenecut=40 / intra_refresh=0 / rc_lookahead=60 / rc=2pass / mbtree=1 / bitrate=1975 / ratetol=1.0 / qcomp=0.60 / qpmin=0 / qpmax=69 / qpstep=4 / cplxblur=20.0 / qblur=0.5 / ip_ratio=1.40 / aq=1:1.00

Audio
ID: 2
Format: AC-3
Format/Info: Audio Coding 3
Mode extension: CM (complete main)
Codec ID: A_AC3
Duration: 1h 28mn
Bit rate mode: Constant
Bit rate: 384 Kbps
Channel(s): 6 channels
Channel positions: Front: L C R, Side: L R, LFE
Sampling rate: 48.0 KHz
Bit depth: 16 bits
Compression mode: Lossy
Stream size: 242 MiB (16%)
























Поделиться:




реклама партнёра


Вернуться к началу
 Профиль Отправить личное сообщение  
 
   Похожие торренты   Автор   Торрент   Размер 
В этой теме нет новых непрочитанных сообщений. Так себе каникулы / Old Dogs [Комедия, семейный, 2009] BDRip 1080p, Dub+Sub

salma3

94 | 82

8.27 ГБ

В этой теме нет новых непрочитанных сообщений. Отель для собак / Hotel for Dogs [Комедия, семейный, 2009] BDRip 720p, Dub+Dvo+Sub

salma3

23 | 4

7.35 ГБ

В этой теме нет новых непрочитанных сообщений. Последние каникулы 2 / Cabin Fever 2: Spring Fever [ужасы, триллер, комедия, 2009] HDRip, Mvo

salma3

126 | 20

701.67 МБ

В этой теме нет новых непрочитанных сообщений. Ура! Каникулы! [комедия, семейный, детский, 2016] WEB-DL 720p

salma3

612 | 130

2.9 ГБ

В этой теме нет новых непрочитанных сообщений. Ура! Каникулы! [комедия, семейный, детский. 2016] WEB-DLRip [iTunes]

salma3

4217 | 596

1.37 ГБ

В этой теме нет новых непрочитанных сообщений. Опасные каникулы [Приключения, семейный, комедия, 2016] WEB-DL 720p [iTunes]

salma3

693 | 86

2.34 ГБ

В этой теме нет новых непрочитанных сообщений. Опасные каникулы [приключения, детектив, детский, семейный, комедия, 2016] WEB-DLRip-AVC

salma3

298 | 33

1.35 ГБ


Начать новую тему Ответить на тему  [ 1 сообщение ] 




Для Мосгорсуда, Роскомнадзора и рекламодателей:: mosgorsud-torrent[собачка]yandex.ru