Торрент файл
скачать торрент магнет ссылка Добавлен: 15 янв 2012, 21:20
Размер: 746.03 МБ
Сидеров: 77
Личеров: 7
Автор

СообщениеДобавлено: 15 янв 2012, 21:20 

Не в сети
Супермодератор
Аватара пользователя
Дата регистрации:
11 апр 2010, 18:10
Спасибо: 5802 / 7
Сообщения: 56779
Жизнь, как она есть / Life as We Know It

«Семья - инструкция по эксплуатации»

Перевод: Профессиональный (полное дублирование)
Cубтитры:отсутствуют
Формат: LowHDRip, MKV, H.264, AC3

Страна: США
Режиссер: Грег Берланти
Жанр: комедия, драма

Продолжительность: 01:54:39
Год выпуска: 2010

В ролях: Кэтрин Хайгл, Джош Дюамель, Джош Лукас, Алексис Кладжетт, Бринн Кладжетт, Брук Клагетт, Хэйес МакАртур, Кристина Хендрикс, Сара Барнс, Джессика Ст. Клэр

Описание: Холли Беренсон — набирающий обороты поставщик продуктов питания, Эрик Мессер — многообещающий директор спортивной сети. После рокового первого свидания единственное, что у них теперь общее, — это ненависть друг к другу и любовь к крестнице Софи. Но когда внезапно они становятся единственными, кто остается у Софи, Холли и Мессер вынуждены забыть о собственных несовпадениях. В попытке состыковать карьерные амбиции и несхожие планы досуга им всё-таки придется найти хоть что-то их объединяющее, ведь отныне им предстоит поселиться под одной крышей.







Видео: 704x288 (2.40:1), 23.976 fps, AVC(x264) High@L4.1 ~780 kbps avg, 0.16 bit/pixel
Аудио: 48 kHz, AC3, 2 ch, ~128.00 kbps avg

Рип от:TswetkOFF
Релиз-Группа:




General
Unique ID: 223992646592063199007304257457907045000 (0xA8836A1F4164AF0F8661B26603EC1288)
Complete name: D:\Films\gizn_kak_ona_est_[tfile.ru]\Life.As.We.Know.It745.mkv
Format: Matroska
File size: 746 MiB
Duration: 1h 54mn
Overall bit rate: 910 Kbps
Encoded date: UTC 2011-08-01 00:20:06
Writing application: mkvmerge v4.6.0 ('Still Crazy After All These Years') сборка от Apr1 2011 21:01:49
Writing library: libebml v1.2.0 + libmatroska v1.1.0

Video
ID: 1
Format: AVC
Format/Info: Advanced Video Codec
Format profile: High@L4.1
Format settings, CABAC: Yes
Format settings, ReFrames: 4 frames
Format settings, GOP: M=4, N=32
Codec ID: V_MPEG4/ISO/AVC
Duration: 1h 54mn
Bit rate: 780 Kbps
Width: 704 pixels
Height: 288 pixels
Display aspect ratio: 2.40:1
Frame rate: 23.976 fps
Color space: YUV
Chroma subsampling: 4:2:0
Bit depth: 8 bits
Scan type: Progressive
Bits/(Pixel*Frame): 0.160
Stream size: 626 MiB (84%)
Writing library: x264 core 115 r1937 aa21558
Encoding settings: cabac=1 / ref=2 / deblock=1:-1:-1 / analyse=0x3:0x113 / me=hex / subme=4 / psy=1 / psy_rd=0.00:0.10 / mixed_ref=0 / me_range=16 / chroma_me=1 / trellis=1 / 8x8dct=1 / cqm=0 / deadzone=21,11 / fast_pskip=1 / chroma_qp_offset=-1 / threads=3 / sliced_threads=0 / nr=0 / decimate=1 / interlaced=0 / bluray_compat=0 / constrained_intra=0 / bframes=3 / b_pyramid=2 / b_adapt=1 / b_bias=0 / direct=1 / weightb=1 / open_gop=0 / weightp=1 / keyint=250 / keyint_min=23 / scenecut=40 / intra_refresh=0 / rc_lookahead=20 / rc=2pass / mbtree=1 / bitrate=780 / ratetol=1.0 / qcomp=0.60 / qpmin=0 / qpmax=69 / qpstep=4 / cplxblur=20.0 / qblur=0.5 / ip_ratio=1.40 / aq=1:1.00

Audio
ID: 2
Format: AC-3
Format/Info: Audio Coding 3
Mode extension: CM (complete main)
Codec ID: A_AC3
Duration: 1h 54mn
Bit rate mode: Constant
Bit rate: 128 Kbps
Channel(s): 2 channels
Channel positions: Front: L R
Sampling rate: 48.0 KHz
Bit depth: 16 bits
Compression mode: Lossy
Stream size: 105 MiB (14%)













Поделиться:




реклама партнёра


Вернуться к началу
 Профиль Отправить личное сообщение  
 
   Похожие торренты   Автор   Торрент   Размер 
В этой теме нет новых непрочитанных сообщений. Слепое пятно / Blindspot [01х01-08 из 23] (Сара Шечтер, Грег Берланти, Мартин Джеро) [2015, Детектив, Драма, Криминал, WEB-DL 720p | NewStudio]

Dracon

8 | 16

11.3 ГБ

В этой теме нет новых непрочитанных сообщений. Эта прекрасная жизнь / Жизнь прекрасна / Life Is Beautiful [Драма, мелодрама, 2012] HDRip, Mvo [Red Media]

salma3

1 | 2

1.46 ГБ

В этой теме нет новых непрочитанных сообщений. Жизнь, что тогда была / Та жизнь / Antoki no Inochi / Life Back Then (Такахиса Дзэдзэ / Takahisa Zeze) [2011г., Япония, драма, DVDRip] Sub

Alfredovich

9 | 5

1.38 ГБ

В этой теме нет новых непрочитанных сообщений. Менее привычная жизнь / A Life Less Ordinary [фэнтези, драма, мелодрама, комедия, криминал, 1997] BDRip 720p, Mvo

salma3

63 | 31

4.53 ГБ

В этой теме нет новых непрочитанных сообщений. Невероятная жизнь Уолтера Митти / The Secret Life of Walter Mitty [фэнтези, драма, комедия, приключения, 2013] TS, dub

Ανδρέας

6591 | 639

1.37 ГБ

В этой теме нет новых непрочитанных сообщений. Невероятная жизнь Уолтера Митти / The Secret Life of Walter Mitty [фэнтези, драма, комедия, приключения, 2013] WEB-DL 1080p, Mvo

Dracon

24 | 3

3.73 ГБ

В этой теме нет новых непрочитанных сообщений. Невероятная жизнь Уолтера Митти / The Secret Life of Walter Mitty [фэнтези, драма, комедия, приключения, 2013] WEB-DLRip, Mvo

Dracon

38 | 11

2.05 ГБ


Начать новую тему Ответить на тему  [ 1 сообщение ] 




Для Мосгорсуда, Роскомнадзора и рекламодателей:: mosgorsud-torrent[собачка]yandex.ru