Торрент файл
скачать торрент магнет ссылка Добавлен: 15 янв 2012, 21:20
Размер: 1.45 ГБ
Сидеров: 36
Личеров: 4
Автор

СообщениеДобавлено: 15 янв 2012, 21:20 

Не в сети
Супермодератор
Аватара пользователя
Дата регистрации:
11 апр 2010, 18:10
Спасибо: 5960 / 7
Сообщения: 56765
Жизнь, как она есть / Life as We Know It

«Семья - инструкция по эксплуатации»

Перевод: Профессиональный (полное дублирование)
Cубтитры:отсутствуют
Формат: HDRip, MKV, H.264, AC3

Страна: США
Режиссер: Грег Берланти
Жанр: комедия, драма

Продолжительность: 01:54:39
Год выпуска: 2010

В ролях: Кэтрин Хайгл, Джош Дюамель, Джош Лукас, Алексис Кладжетт, Бринн Кладжетт, Брук Клагетт, Хэйес МакАртур, Кристина Хендрикс, Сара Барнс, Джессика Ст. Клэр

Описание: Холли Беренсон — набирающий обороты поставщик продуктов питания, Эрик Мессер — многообещающий директор спортивной сети. После рокового первого свидания единственное, что у них теперь общее, — это ненависть друг к другу и любовь к крестнице Софи. Но когда внезапно они становятся единственными, кто остается у Софи, Холли и Мессер вынуждены забыть о собственных несовпадениях. В попытке состыковать карьерные амбиции и несхожие планы досуга им всё-таки придется найти хоть что-то их объединяющее, ведь отныне им предстоит поселиться под одной крышей.







Видео: 720x296 (2.40:1), 23.976 fps, AVC(x264) High@L4.1 ~1 618 kbps avg, 0.317 bit/pixel
Аудио: 48 kHz, AC3, 6 ch, ~192 kbps avg

Рип от:TswetkOFF
Релиз-Группа:




General
Unique ID: 240054764448865892946340448521825520586 (0xB498DDAC926DA906AF1D592ABDBF8BCA)
Complete name: D:\Films\life_as_we_know_it_[tfile.ru].mkv
Format: Matroska
File size: 1.45 GiB
Duration: 1h 54mn
Overall bit rate: 1 812 Kbps
Encoded date: UTC 2011-08-01 23:55:30
Writing application: mkvmerge v4.6.0 ('Still Crazy After All These Years') сборка от Apr1 2011 21:01:49
Writing library: libebml v1.2.0 + libmatroska v1.1.0

Video
ID: 1
Format: AVC
Format/Info: Advanced Video Codec
Format profile: High@L4.1
Format settings, CABAC: Yes
Format settings, ReFrames: 4 frames
Format settings, GOP: M=4, N=32
Codec ID: V_MPEG4/ISO/AVC
Duration: 1h 54mn
Bit rate: 1 618 Kbps
Width: 720 pixels
Height: 296 pixels
Display aspect ratio: 2.40:1
Frame rate: 23.976 fps
Color space: YUV
Chroma subsampling: 4:2:0
Bit depth: 8 bits
Scan type: Progressive
Bits/(Pixel*Frame): 0.317
Stream size: 1.27 GiB (87%)
Writing library: x264 core 115 r1937 aa21558
Encoding settings: cabac=1 / ref=2 / deblock=1:-1:-1 / analyse=0x3:0x113 / me=hex / subme=4 / psy=1 / psy_rd=0.00:0.10 / mixed_ref=0 / me_range=16 / chroma_me=1 / trellis=1 / 8x8dct=1 / cqm=0 / deadzone=21,11 / fast_pskip=1 / chroma_qp_offset=-1 / threads=3 / sliced_threads=0 / nr=0 / decimate=1 / interlaced=0 / bluray_compat=0 / constrained_intra=0 / bframes=3 / b_pyramid=2 / b_adapt=1 / b_bias=0 / direct=1 / weightb=1 / open_gop=0 / weightp=1 / keyint=250 / keyint_min=23 / scenecut=40 / intra_refresh=0 / rc_lookahead=20 / rc=2pass / mbtree=1 / bitrate=1618 / ratetol=1.0 / qcomp=0.60 / qpmin=0 / qpmax=69 / qpstep=4 / cplxblur=20.0 / qblur=0.5 / ip_ratio=1.40 / aq=1:1.00

Audio
ID: 2
Format: AC-3
Format/Info: Audio Coding 3
Mode extension: CM (complete main)
Codec ID: A_AC3
Duration: 1h 54mn
Bit rate mode: Constant
Bit rate: 192 Kbps
Channel(s): 6 channels
Channel positions: Front: L C R, Side: L R, LFE
Sampling rate: 48.0 KHz
Bit depth: 16 bits
Compression mode: Lossy
Stream size: 157 MiB (11%)











Поделиться:




реклама партнёра


Вернуться к началу
 Профиль Отправить личное сообщение  
 
   Похожие торренты   Автор   Торрент   Размер 
В этой теме нет новых непрочитанных сообщений. Остановившаяся жизнь / Still Life [драма, комедия, 2013] HDRip, Dvo

salma3

253 | 61

1.45 ГБ

В этой теме нет новых непрочитанных сообщений. Слепое пятно / Blindspot [01х01-08 из 23] (Сара Шечтер, Грег Берланти, Мартин Джеро) [2015, Детектив, Драма, Криминал, WEB-DL 720p | NewStudio]

Dracon

8 | 16

11.3 ГБ

В этой теме нет новых непрочитанных сообщений. Жизнь дерьмо / Life Stinks [мелодрама, комедия, 1991] HDRip, Mvo

salma3

75 | 9

1.37 ГБ

В этой теме нет новых непрочитанных сообщений. Жизнь / Life [Драма, биография, 2015] HDRip, dvo

Dracon

77 | 7

1.37 ГБ

В этой теме нет новых непрочитанных сообщений. Клубная жизнь / Club Life [драма, 2015] HDRip, Mvo

salma3

141 | 48

1.37 ГБ

В этой теме нет новых непрочитанных сообщений. Жизнь в деталях / Life in Pieces [S02] [комедия, 2016] WEB-DL 1080p, Mvo [Fox Life]

salma3

7 | 11

18.73 ГБ

В этой теме нет новых непрочитанных сообщений. Тайная жизнь домашних животных / The Secret Life of Pets (Мультфильм, комедия, семейный, 2016) HDRip от MegaPeer | Line

marya111

41 | 7

1.42 ГБ


Начать новую тему Ответить на тему  [ 1 сообщение ] 




Для Мосгорсуда, Роскомнадзора и рекламодателей:: mosgorsud-torrent[собачка]yandex.ru