Торрент файл
скачать торрент магнет ссылка Добавлен: 15 янв 2012, 21:20
Размер: 745.1 МБ
Сидеров: 9
Личеров: 4
Автор

СообщениеДобавлено: 15 янв 2012, 21:20 

Не в сети
Супермодератор
Аватара пользователя
Дата регистрации:
11 апр 2010, 18:10
Спасибо: 5801 / 7
Сообщения: 56779
Как заняться любовью с женщиной / How to Make Love to a Woman

Перевод: Профессиональный (многоголосый, закадровый)
Субтитры:отсутствуют
Формат: DVDRip, MKV, H.264, AC3

Страна: США
Режиссер: Скотт Калвер
Жанр: комедия

Продолжительность: 01:27:38
Год выпуска: 2010

В ролях: Джош Мейерс, Кристен Риттер, Юджин Бирд, Иен Сомерхолдер, Линдси Ричардс, Катрин Рейтман, Нора Киркпатрик, Кен Жонг, Джеймс, Кайсон Ли, Айк Баринхолц, Дженна Джеймсон

Описание: Энди не может удовлетворить свою подругу Лоурен. Ситуация осложняется, когда на горизонте неожиданно появляется друг детства Лоурен, красавец Даниэль. Энди в срочном порядке обращается за помощью к своим друзьям музыкантам.







Видео: 704x392 (16:9), 25 fps, AVC(x264) High@L4.1~1 051 kbps avg, 0.15 bit/pixel
Аудио: 48 kHz, AC3, 2 ch, ~128 kbps avg

Релиз-Группа:

Рип от:TswetkOFF





General
Unique ID: 185373304538678325368707646096759224556 (0x8B75998D27B2E1E7B5FCAA7A66E678EC)
Complete name: D:\Films\kak_zanyatsya_luboviju_s_genschinoi_[tfile.ru].mkv
Format: Matroska
File size: 745 MiB
Duration: 1h 27mn
Overall bit rate: 1 189 Kbps
Encoded date: UTC 2011-08-03 03:02:35
Writing application: mkvmerge v4.6.0 ('Still Crazy After All These Years') сборка от Apr1 2011 21:01:49
Writing library: libebml v1.2.0 + libmatroska v1.1.0

Video
ID: 1
Format: AVC
Format/Info: Advanced Video Codec
Format profile: High@L4.1
Format settings, CABAC: Yes
Format settings, ReFrames: 4 frames
Format settings, GOP: M=4, N=5
Codec ID: V_MPEG4/ISO/AVC
Duration: 1h 27mn
Bit rate: 1 059 Kbps
Width: 704 pixels
Height: 392 pixels
Display aspect ratio: 16:9
Frame rate: 25.000 fps
Color space: YUV
Chroma subsampling: 4:2:0
Bit depth: 8 bits
Scan type: Progressive
Bits/(Pixel*Frame): 0.153
Stream size: 650 MiB (87%)
Writing library: x264 core 115 r1937 aa21558
Encoding settings: cabac=1 / ref=2 / deblock=1:-1:-1 / analyse=0x3:0x113 / me=hex / subme=4 / psy=1 / psy_rd=0.00:0.10 / mixed_ref=0 / me_range=16 / chroma_me=1 / trellis=1 / 8x8dct=1 / cqm=0 / deadzone=21,11 / fast_pskip=1 / chroma_qp_offset=-1 / threads=3 / sliced_threads=0 / nr=0 / decimate=1 / interlaced=0 / bluray_compat=0 / constrained_intra=0 / bframes=3 / b_pyramid=2 / b_adapt=1 / b_bias=0 / direct=1 / weightb=1 / open_gop=0 / weightp=1 / keyint=250 / keyint_min=25 / scenecut=40 / intra_refresh=0 / rc_lookahead=20 / rc=2pass / mbtree=1 / bitrate=1059 / ratetol=1.0 / qcomp=0.60 / qpmin=0 / qpmax=69 / qpstep=4 / cplxblur=20.0 / qblur=0.5 / ip_ratio=1.40 / aq=1:1.00

Audio
ID: 2
Format: AC-3
Format/Info: Audio Coding 3
Mode extension: CM (complete main)
Codec ID: A_AC3
Duration: 1h 27mn
Bit rate mode: Constant
Bit rate: 128 Kbps
Channel(s): 2 channels
Channel positions: Front: L R
Sampling rate: 48.0 KHz
Bit depth: 16 bits
Compression mode: Lossy
Stream size: 80.2 MiB (11%)














Поделиться:




реклама партнёра


Вернуться к началу
 Профиль Отправить личное сообщение  
 
   Похожие торренты   Автор   Торрент   Размер 
В этой теме нет новых непрочитанных сообщений. Как заниматься любовью по-английски / How to Make Love Like an Englishman (Том Вон) [Мелодрама, комедия, 2014] WEB-DL 720p, Dub

Dracon

38 | 1

3.2 ГБ

В этой теме нет новых непрочитанных сообщений. Как заниматься любовью по-английски / How to Make Love Like an Englishman (Том Вон) [Мелодрама, комедия, 2014] WEB-DL 720p [Lucky Strike]

Dracon

136 | 1

3.15 ГБ

В этой теме нет новых непрочитанных сообщений. С любовью, Рози / Love, Rosie С любовью, Рози / Love, Rosie (Кристиан Диттер) [мелодрама, комедия, 2015] HDRip, avo

Dracon

4 | 2

1.37 ГБ

В этой теме нет новых непрочитанных сообщений. С любовью, Рози / Love, Rosie (Кристиан Диттер) [мелодрама, комедия, 2015] WEB-DLRip, dub [звук TS]

Dracon

4 | 4

1.46 ГБ

В этой теме нет новых непрочитанных сообщений. С любовью, Рози / Love, Rosie (Кристиан Диттер) [мелодрама, комедия, 2015] WEB-DLRip 720p, dub [звук TS]

Dracon

4 | 3

3.46 ГБ

В этой теме нет новых непрочитанных сообщений. С любовью, Рози / Love, Rosie (Кристиан Диттер) [мелодрама, комедия, 2015] HDRip, dub [Чистый звук]

Dracon

7340 | 221

1.37 ГБ

В этой теме нет новых непрочитанных сообщений. С любовью, Рози / Love, Rosie (Кристиан Диттер) [мелодрама, комедия, 2015] BDRip 720p, dub [Чистый звук]

Dracon

134 | 89

4.65 ГБ


Начать новую тему Ответить на тему  [ 1 сообщение ] 




Для Мосгорсуда, Роскомнадзора и рекламодателей:: mosgorsud-torrent[собачка]yandex.ru