Торрент файл
скачать торрент магнет ссылка Добавлен: 15 янв 2012, 21:19
Размер: 1.37 ГБ
Сидеров: 78
Личеров: 8
Автор

СообщениеДобавлено: 15 янв 2012, 21:19 

Не в сети
Супермодератор
Аватара пользователя
Дата регистрации:
11 апр 2010, 18:10
Спасибо: 5802 / 7
Сообщения: 56779
Шестой игрок / The Sixth Man


Перевод: Профессиональный (многоголосый, закадровый), cубтитры: отсутствуют
Формат: DVDRip, AVI, XviD, AC3
Страна: США
Режиссер: Рэндолл Миллер
Жанр: комедия, фэнтези, драма, мелодрама, спорт
Продолжительность: 01:48:10
Год выпуска: 1997
В ролях: Марлон Уайанс, Кадим Хардисон, Дэвид Пэймер, Майкл Мишель, Кевин Данн, Гари Джонс, Лоренцо Орр

Описание: Кенни Тайлер и его старший брат Энтони — звезды школьной баскетбольной команды. Неожиданная смерть Энтони не оставляет ему практически никаких шансов на успех. Но вдруг все меняется. Бывший аутсайдер одерживает победу за победой.

Как будто кто-то невидимый помогает будущим чемпионам… Какая-то таинственная сила… или просто призрак старшего брата, который самовольно вышел на площадку в качестве шестого игрока. Казалось бы, лучше и быть не может, но Кени хочет выиграть честно…




Видео: 720x384 (1.88:1), 23.976 fps, XviD build 50 ~1607 kbps avg, 0.24 bit/pixel
Аудио: 48 kHz, AC3 Dolby Digital, 2/0 (L,R) ch, ~192.00 kbps avg




Общее
Полное имя: E:\Shestoj.igrok.1997.XviD.DVDRip.Brux.avi
Формат: AVI
Формат/Информация: Audio Video Interleave
Размер файла: 1,37 Гбайт
Продолжительность: 1 ч. 48 м.
Общий поток: 1811 Кбит/сек
Режиссёр: Rip By Brux Для http://kinozalsat.com/
Программа кодирования: Lavf52.33.0

Видео
Идентификатор: 0
Формат: MPEG-4 Visual
Профиль формата: Simple@L3
Параметр BVOP формата: Нет
Параметр QPel формата: Нет
Параметр GMC формата: Без точки перехода
Параметр матрицы формата: Default (H.263)
Идентификатор кодека: XVID
Идентификатор кодека/Подсказка: XviD
Продолжительность: 1 ч. 48 м.
Битрейт: 1608 Кбит/сек
Ширина: 720 пикс.
Высота: 384 пикс.
Соотношение сторон: 1,875
Частота кадров: 23,976 кадр/сек
Цветовое пространство: YUV
Подвыборка цветности: 4:2:0
Битовая глубина: 8 бит
Тип развёртки: Прогрессивная
Метод сжатия: С потерями
Бит/(Пиксели*Кадры): 0.243
Размер потока: 1,22 Гбайт (89%)
Библиотека кодирования: XviD 1.2.1 (UTC 2008-12-04)

Аудио
Идентификатор: 1
Формат: AC-3
Формат/Информация: Audio Coding 3
Расширение режима: CM (complete main)
Идентификатор кодека: 2000
Продолжительность: 1 ч. 48 м.
Вид битрейта: Постоянный
Битрейт: 192 Кбит/сек
Канал(ы): 2 канала(ов)
Расположение каналов: Front: L R
Частота: 48,0 КГц
Битовая глубина: 16 бит
Метод сжатия: С потерями
Размер потока: 149 Мбайт (11%)
Выравнивание: Соединение по промежуткам
Продолжительность промежутка: 32мс. (0,77 видеокадр)
Время предзагрузки промежутка: 32 ms





Поделиться:




реклама партнёра


Вернуться к началу
 Профиль Отправить личное сообщение  
 
   Похожие торренты   Автор   Торрент   Размер 
В этой теме нет новых непрочитанных сообщений. Шестой игрок / The Sixth Man [комедия, фэнтези, спорт, 1997] BDRip-AVC, Mvo

salma3

15 | 9

2.18 ГБ

В этой теме нет новых непрочитанных сообщений. Постоялый двор шестой степени счастья / The inn of the sixth happiness [Драма, военный, биография, экранизация, 1958] BDRip 1080p, Mvo+Sub

salma3

2 | 2

15.52 ГБ

В этой теме нет новых непрочитанных сообщений. Накал страстей / Fever Pitch [Драма, мелодрама, комедия, спорт, 1997] DVDRip, Dvo

salma3

19 | 4

1.45 ГБ

В этой теме нет новых непрочитанных сообщений. Клуб «CBGB» / CBGB (Рэндолл Миллер) [Драма, музыка, 2013] HDRip-AVC, Mvo+dvo+sub

Dracon

63 | 5

2.01 ГБ

В этой теме нет новых непрочитанных сообщений. Колдовская любовь / Un amour de sorcière [фэнтези, мелодрама, комедия, приключения, 1997] DVDRip, Mvo [НТВ]

salma3

31 | 4

1.46 ГБ

В этой теме нет новых непрочитанных сообщений. Менее привычная жизнь / A Life Less Ordinary [фэнтези, драма, мелодрама, комедия, криминал, 1997] BDRip 720p, Mvo

salma3

63 | 31

4.53 ГБ

В этой теме нет новых непрочитанных сообщений. Попутчики / Going All the Way [драма, мелодрама, комедия, 1997] DVDRip, Mvo

salma3

15 | 2

1.46 ГБ


Начать новую тему Ответить на тему  [ 1 сообщение ] 




Для Мосгорсуда, Роскомнадзора и рекламодателей:: mosgorsud-torrent[собачка]yandex.ru