Торрент файл
скачать торрент магнет ссылка Добавлен: 15 янв 2012, 21:19
Размер: 744.54 МБ
Сидеров: 27
Личеров: 4
Автор

СообщениеДобавлено: 15 янв 2012, 21:19 

Не в сети
Супермодератор
Аватара пользователя
Дата регистрации:
11 апр 2010, 18:10
Спасибо: 5960 / 7
Сообщения: 56765
Шестой игрок / The Sixth Man


Перевод: Профессиональный (многоголосый, закадровый), cубтитры: отсутствуют
Формат: DVDRip, AVI, XviD, MP3
Страна: США
Режиссер: Рэндолл Миллер
Жанр: комедия, фэнтези, драма, мелодрама, спорт
Продолжительность: 01:48:10
Год выпуска: 1997
В ролях: Марлон Уайанс, Кадим Хардисон, Дэвид Пэймер, Майкл Мишель, Кевин Данн, Гари Джонс, Лоренцо Орр

Описание: Кенни Тайлер и его старший брат Энтони — звезды школьной баскетбольной команды. Неожиданная смерть Энтони не оставляет ему практически никаких шансов на успех. Но вдруг все меняется. Бывший аутсайдер одерживает победу за победой.

Как будто кто-то невидимый помогает будущим чемпионам… Какая-то таинственная сила… или просто призрак старшего брата, который самовольно вышел на площадку в качестве шестого игрока. Казалось бы, лучше и быть не может, но Кени хочет выиграть честно…




Видео: 592x320 (1.85:1), 23.976 fps, XviD build 50 ~824 kbps avg, 0.18 bit/pixel
Аудио: 48 kHz, MPEG Layer 3, 2 ch, ~128.00 kbps avg




Общее
Полное имя: E:\6igrok.avi
Формат: AVI
Формат/Информация: Audio Video Interleave
Размер файла: 745 Мбайт
Продолжительность: 1 ч. 48 м.
Общий поток: 962 Кбит/сек
Режиссёр: tide
Программа кодирования: VirtualDubMod 1.5.10.2 (build 2540/release)
Правообладатель: rutracker.org
Примечание: all films

Видео
Идентификатор: 0
Формат: MPEG-4 Visual
Профиль формата: Advanced Simple@L5
Параметр BVOP формата: 1
Параметр QPel формата: Нет
Параметр GMC формата: Без точки перехода
Параметр матрицы формата: Выборочная
Идентификатор кодека: XVID
Идентификатор кодека/Подсказка: XviD
Продолжительность: 1 ч. 48 м.
Битрейт: 825 Кбит/сек
Ширина: 592 пикс.
Высота: 320 пикс.
Соотношение сторон: 1,850
Частота кадров: 23,976 кадр/сек
Цветовое пространство: YUV
Подвыборка цветности: 4:2:0
Битовая глубина: 8 бит
Тип развёртки: Прогрессивная
Метод сжатия: С потерями
Бит/(Пиксели*Кадры): 0.182
Размер потока: 638 Мбайт (86%)
Библиотека кодирования: XviD 1.2.1 (UTC 2008-12-04)

Аудио
Идентификатор: 1
Формат: MPEG Audio
Версия формата: Version 1
Профиль формата: Layer 3
Идентификатор кодека: 55
Идентификатор кодека/Подсказка: MP3
Продолжительность: 1 ч. 48 м.
Вид битрейта: Постоянный
Битрейт: 128 Кбит/сек
Канал(ы): 2 канала(ов)
Частота: 48,0 КГц
Метод сжатия: С потерями
Задержка видео: 1 с. 968 мс.
Размер потока: 99,1 Мбайт (13%)
Выравнивание: Разделение по промежуткам
Продолжительность промежутка: 42мс. (1,00 видеокадр)
Время предзагрузки промежутка: 504 ms
Библиотека кодирования: LAME3.98r
Настройки программы: -m s -V 4 -q 2 -lowpass 17 -b 128





Поделиться:




реклама партнёра


Вернуться к началу
 Профиль Отправить личное сообщение  
 
   Похожие торренты   Автор   Торрент   Размер 
В этой теме нет новых непрочитанных сообщений. Шестой игрок / The Sixth Man [комедия, фэнтези, спорт, 1997] BDRip-AVC, Mvo

salma3

15 | 9

2.18 ГБ

В этой теме нет новых непрочитанных сообщений. Клуб «CBGB» / CBGB (Рэндолл Миллер) [Драма, музыка, 2013] HDRip-AVC, Mvo+dvo+sub

Dracon

63 | 5

2.01 ГБ

В этой теме нет новых непрочитанных сообщений. Префонтейн / Prefontaine [драма, мелодрама, биография, спорт, 1997] WEB-DL 720p, Dvo

salma3

0 | 0

3.43 ГБ

В этой теме нет новых непрочитанных сообщений. Боксёр / The Boxer [Драма, мелодрама, спорт, 1997] BDRip 720p, Mvo

salma3

17 | 4

5.76 ГБ

В этой теме нет новых непрочитанных сообщений. Менее привычная жизнь / A Life Less Ordinary [фэнтези, драма, мелодрама, комедия, криминал, 1997] BDRip 720p, Mvo

salma3

63 | 31

4.53 ГБ

В этой теме нет новых непрочитанных сообщений. Дневники вампира / The Vampire Diaries [S01-06] (Кевин Брэй, Дж. Миллер Тобин, Маркос Сига) [Драма, Мелодрама, Ужасы, Фэнтези, 2009-2015] WEB-DL 720p [LostFilm]

Dracon

6 | 60

188.25 ГБ

В этой теме нет новых непрочитанных сообщений. Дневники вампира / The Vampire Diaries [07х01-05 из 22] (Кевин Брэй, Дж. Миллер Тобин, Маркос Сига) [2015, Драма, Мелодрама, Ужасы, Фэнтези, HDTVRip | ColdFilm]

Nickolas3435

146 | 495

1.96 ГБ


Начать новую тему Ответить на тему  [ 1 сообщение ] 




Для Мосгорсуда, Роскомнадзора и рекламодателей:: mosgorsud-torrent[собачка]yandex.ru