Торрент файл
скачать торрент магнет ссылка Добавлен: 15 янв 2012, 21:19
Размер: 1.45 ГБ
Сидеров: 21
Личеров: 5
Автор

СообщениеДобавлено: 15 янв 2012, 21:19 

Не в сети
Супермодератор
Аватара пользователя
Дата регистрации:
11 апр 2010, 18:10
Спасибо: 5802 / 7
Сообщения: 56779
Очень плохая училка / Bad Teacher

Перевод: Профессиональный (полное дублирование) [Лицензия]
Cубтитры: отсутствуют
Формат: DVDRip-AVC, MKV, H.264, AC3
Страна: США
Слоган: «Ей всё по X+Y=?»

Режиссер: Джейк Кэздан
Жанр: комедия
Продолжительность: 01:28:12
Год выпуска: 2011

В ролях: Кэмерон Диаз, Джастин Тимберлэйк, Джейсон Сигел, Люси Панч, Филлис Смит, Джон Майкл Хиггинс, Дэйв Аллен, Джиллиан Арменанте, Мэттью Дж. Эванс, Кейтлин Девер
Описание: Учительница средних классов живет гламурной жизнью светской львицы, ходит на работу как на вечеринку и мечтает об увеличении объема собственного бюста. Однако после внезапного разрыва с богатым бойфрендом ее образ жизни резко меняется, хотя сама она это осознает не сразу. Но когда в их школу приходит новый преподаватель, она совершенно теряет голову и начинает охоту за… деньгами.

[/field][/field]

Видео: 720x552@1024x552, AVC(x264), 25 fps, High@L4.1 ~1970 kbps avg, 0.198 bit/pixel
Аудио: 48 kHz, AC3 Dolby Digital, 3/2 (L,C,R,l,r) + LFE ch, ~384.00 kbps avg




Общее
Уникальный идентификатор: 249292608629940330793998888407287539569 (0xBB8C028E8A203C6E9E5EDFCA81A52771)
Полное имя: E:\торрент\bad_teacher_[tfile.ru].mkv
Формат: Matroska
Размер файла: 1,45 Гбайт
Продолжительность: 1 ч. 28 м.
Общий поток: 2355 Кбит/сек
Дата кодирования: UTC 2011-08-03 19:21:28
Программа кодирования: mkvmerge v4.6.0 ('Still Crazy After All These Years') сборка от Apr1 2011 21:01:49
Библиотека кодирования: libebml v1.2.0 + libmatroska v1.1.0

Видео
Идентификатор: 1
Формат: AVC
Формат/Информация: Advanced Video Codec
Профиль формата: High@L4.1
Параметр CABAC формата: Да
Параметр ReFrames формата: 10 кадров
Идентификатор кодека: V_MPEG4/ISO/AVC
Продолжительность: 1 ч. 28 м.
Битрейт: 1970 Кбит/сек
Ширина: 720 пикс.
Высота: 552 пикс.
Соотношение сторон: 1,855
Частота кадров: 25,000 кадр/сек
Цветовое пространство: YUV
Подвыборка цветности: 4:2:0
Битовая глубина: 8 бит
Тип развёртки: Прогрессивная
Бит/(Пиксели*Кадры): 0.198
Размер потока: 1,19 Гбайт (82%)
Библиотека кодирования: x264 core 115 r1937 aa21558
Настройки программы: cabac=1 / ref=10 / deblock=1:-2:-1 / analyse=0x3:0x133 / me=umh / subme=9 / psy=1 / psy_rd=1.00:0.10 / mixed_ref=1 / me_range=32 / chroma_me=0 / trellis=2 / 8x8dct=1 / cqm=0 / deadzone=21,11 / fast_pskip=0 / chroma_qp_offset=-3 / threads=12 / sliced_threads=0 / nr=0 / decimate=0 / interlaced=0 / bluray_compat=0 / constrained_intra=0 / bframes=8 / b_pyramid=2 / b_adapt=2 / b_bias=0 / direct=3 / weightb=1 / open_gop=0 / weightp=2 / keyint=250 / keyint_min=25 / scenecut=40 / intra_refresh=0 / rc=2pass / mbtree=0 / bitrate=1970 / ratetol=1.0 / qcomp=0.65 / qpmin=0 / qpmax=69 / qpstep=4 / cplxblur=20.0 / qblur=0.5 / ip_ratio=1.40 / pb_ratio=1.30 / aq=1:1.00

Аудио
Идентификатор: 2
Формат: AC-3
Формат/Информация: Audio Coding 3
Расширение режима: CM (complete main)
Идентификатор кодека: A_AC3
Продолжительность: 1 ч. 28 м.
Вид битрейта: Постоянный
Битрейт: 384 Кбит/сек
Каналы: 6 каналов
Расположение каналов: Front: L C R, Side: L R, LFE
Частота: 48,0 КГц
Битовая глубина: 16 бит
Метод сжатия: С потерями
Размер потока: 242 Мбайт (16%)











Поделиться:




реклама партнёра


Вернуться к началу
 Профиль Отправить личное сообщение  
 
   Похожие торренты   Автор   Торрент   Размер 
В этой теме нет новых непрочитанных сообщений. Дробилка / The Grinder / 1 сезон 1-20 серии из 22 (Джейк Кэздан) [Комедия, 2015] WEB-DLRip [NewStudio]

Dracon

14 | 11

6.1 ГБ

В этой теме нет новых непрочитанных сообщений. Чудаки-одиночки / Weird Loners [s01] (Джейк Кэздан, Роберт Коэн, Кристин Джернон) [2015, комедия, HDTVRip | Hamster]

Nickolas3435

36 | 3

1.5 ГБ

В этой теме нет новых непрочитанных сообщений. Трудности ассимиляции (Понаехали!) / Fresh Off the Boat [02 сезон: 01-08 серии из 13] (Линн Шелтон, Роберт Коэн, Джейк Кэздан) [Комедия, 2015] HDTVRip [Причудики]

Dracon

9 | 10

1.98 ГБ

В этой теме нет новых непрочитанных сообщений. Трудности ассимиляции (Понаехали!) / Fresh Off the Boat [1 сезон: 1-13 серии из 13] (Линн Шелтон, Роберт Коэн, Джейк Кэздан) [Комедия, 2015] WEB-DLRip [Причудики]

Dracon

15 | 8

3.2 ГБ

В этой теме нет новых непрочитанных сообщений. УЧИЛКА / TEACHER (Алексей Петрухин) [2015, Драма, боевик, криминал , WEB-DL 1080р ] [DD5.1] [Цифровая лицензия iTunes]

Враг Нароода

4 | 5

5.18 ГБ

В этой теме нет новых непрочитанных сообщений. Джейк "Speed" / Быстрый Джейк / Jake Speed [Приключения, боевик, комедия, 1986] DVDRip, Mvo

salma3

18 | 5

1.46 ГБ

В этой теме нет новых непрочитанных сообщений. [TrickyOldTeacher.com] Sofy Torr aka Sofy Soul (Innocent student gets her pussy fucked by teacher / 07.10.2016) [Old and Young, Hardcore, Teen, Reality, Teacher, SiteRip]

kite

14 | 0

310.13 МБ


Начать новую тему Ответить на тему  [ 1 сообщение ] 




Для Мосгорсуда, Роскомнадзора и рекламодателей:: mosgorsud-torrent[собачка]yandex.ru