Торрент файл
скачать торрент магнет ссылка Добавлен: 15 янв 2012, 21:19
Размер: 1.45 ГБ
Сидеров: 35
Личеров: 5
Автор

СообщениеДобавлено: 15 янв 2012, 21:19 

Не в сети
Супермодератор
Аватара пользователя
Дата регистрации:
11 апр 2010, 18:10
Спасибо: 5801 / 7
Сообщения: 56779
Как заняться любовью с женщиной / How to Make Love to a Woman

Перевод: Профессиональный (многоголосый, закадровый)
Субтитры:отсутствуют
Формат: DVDRip, MKV, H.264, AC3

Страна: США
Режиссер: Скотт Калвер
Жанр: комедия

Продолжительность: 01:27:38
Год выпуска: 2010

В ролях: Джош Мейерс, Кристен Риттер, Юджин Бирд, Иен Сомерхолдер, Линдси Ричардс, Катрин Рейтман, Нора Киркпатрик, Кен Жонг, Джеймс, Кайсон Ли, Айк Баринхолц, Дженна Джеймсон

Описание: Энди не может удовлетворить свою подругу Лоурен. Ситуация осложняется, когда на горизонте неожиданно появляется друг детства Лоурен, красавец Даниэль. Энди в срочном порядке обращается за помощью к своим друзьям музыкантам.







Видео: 720x400 (16:9), 25 fps, AVC(x264) High@L4.1~1 985 kbps avg, 0.28 bit/pixel
Аудио: 48 kHz, AC3, 6 ch, ~384 kbps avg

Рип от:TswetkOFF
Релиз-Группа:





General
Unique ID: 241943824544992224344379470232453948822 (0xB604AF871754EB9FBAE930D712A0A596)
Complete name: D:\Films\how_to_make_love_[tfile.ru].mkv
Format: Matroska
File size: 1.45 GiB
Duration: 1h 27mn
Overall bit rate: 2 370 Kbps
Encoded date: UTC 2011-08-03 12:00:06
Writing application: mkvmerge v4.6.0 ('Still Crazy After All These Years') сборка от Apr1 2011 21:01:49
Writing library: libebml v1.2.0 + libmatroska v1.1.0

Video
ID: 1
Format: AVC
Format/Info: Advanced Video Codec
Format profile: High@L4.1
Format settings, CABAC: Yes
Format settings, ReFrames: 4 frames
Format settings, GOP: M=4, N=5
Codec ID: V_MPEG4/ISO/AVC
Duration: 1h 27mn
Bit rate: 1 985 Kbps
Width: 720 pixels
Height: 400 pixels
Display aspect ratio: 16:9
Frame rate: 25.000 fps
Color space: YUV
Chroma subsampling: 4:2:0
Bit depth: 8 bits
Scan type: Progressive
Bits/(Pixel*Frame): 0.276
Stream size: 1.19 GiB (82%)
Writing library: x264 core 115 r1937 aa21558
Encoding settings: cabac=1 / ref=2 / deblock=1:-1:-1 / analyse=0x3:0x113 / me=hex / subme=4 / psy=1 / psy_rd=0.00:0.10 / mixed_ref=0 / me_range=16 / chroma_me=1 / trellis=1 / 8x8dct=1 / cqm=0 / deadzone=21,11 / fast_pskip=1 / chroma_qp_offset=-1 / threads=3 / sliced_threads=0 / nr=0 / decimate=1 / interlaced=0 / bluray_compat=0 / constrained_intra=0 / bframes=3 / b_pyramid=2 / b_adapt=1 / b_bias=0 / direct=1 / weightb=1 / open_gop=0 / weightp=1 / keyint=250 / keyint_min=25 / scenecut=40 / intra_refresh=0 / rc_lookahead=20 / rc=2pass / mbtree=1 / bitrate=1985 / ratetol=1.0 / qcomp=0.60 / qpmin=0 / qpmax=69 / qpstep=4 / cplxblur=20.0 / qblur=0.5 / ip_ratio=1.40 / aq=1:1.00

Audio
ID: 2
Format: AC-3
Format/Info: Audio Coding 3
Mode extension: CM (complete main)
Codec ID: A_AC3
Duration: 1h 27mn
Bit rate mode: Constant
Bit rate: 384 Kbps
Channel(s): 6 channels
Channel positions: Front: L C R, Side: L R, LFE
Sampling rate: 48.0 KHz
Bit depth: 16 bits
Compression mode: Lossy
Stream size: 241 MiB (16%)











Поделиться:




реклама партнёра


Вернуться к началу
 Профиль Отправить личное сообщение  
 
   Похожие торренты   Автор   Торрент   Размер 
В этой теме нет новых непрочитанных сообщений. Как заниматься любовью по-английски / How to Make Love Like an Englishman (Том Вон) [Мелодрама, комедия, 2014] WEB-DL 720p, Dub

Dracon

38 | 1

3.2 ГБ

В этой теме нет новых непрочитанных сообщений. Как заниматься любовью по-английски / How to Make Love Like an Englishman (Том Вон) [Мелодрама, комедия, 2014] WEB-DL 720p [Lucky Strike]

Dracon

136 | 1

3.15 ГБ

В этой теме нет новых непрочитанных сообщений. С любовью, Рози / Love, Rosie С любовью, Рози / Love, Rosie (Кристиан Диттер) [мелодрама, комедия, 2015] HDRip, avo

Dracon

4 | 2

1.37 ГБ

В этой теме нет новых непрочитанных сообщений. С любовью, Рози / Love, Rosie (Кристиан Диттер) [мелодрама, комедия, 2015] WEB-DLRip, dub [звук TS]

Dracon

4 | 4

1.46 ГБ

В этой теме нет новых непрочитанных сообщений. С любовью, Рози / Love, Rosie (Кристиан Диттер) [мелодрама, комедия, 2015] WEB-DLRip 720p, dub [звук TS]

Dracon

4 | 3

3.46 ГБ

В этой теме нет новых непрочитанных сообщений. С любовью, Рози / Love, Rosie (Кристиан Диттер) [мелодрама, комедия, 2015] HDRip, dub [Чистый звук]

Dracon

7340 | 221

1.37 ГБ

В этой теме нет новых непрочитанных сообщений. С любовью, Рози / Love, Rosie (Кристиан Диттер) [мелодрама, комедия, 2015] BDRip 720p, dub [Чистый звук]

Dracon

134 | 89

4.65 ГБ


Начать новую тему Ответить на тему  [ 1 сообщение ] 




Для Мосгорсуда, Роскомнадзора и рекламодателей:: mosgorsud-torrent[собачка]yandex.ru