Торрент файл
скачать торрент магнет ссылка Добавлен: 15 янв 2012, 21:18
Размер: 2.08 ГБ
Сидеров: 63
Личеров: 6
Автор

СообщениеДобавлено: 15 янв 2012, 21:18 

Не в сети
Супермодератор
Аватара пользователя
Дата регистрации:
11 апр 2010, 18:10
Спасибо: 5802 / 7
Сообщения: 56779
Очень плохая училка / Bad Teacher

«Ей всё по X+Y=?»

Перевод: Профессиональный (полное дублирование)
Субтитры:отсутствуют
Формат: DVDRip-AVC, MKV, H.264, AC3

Страна: США
Режиссер: Джейк Кэздан
Жанр: комедия

Продолжительность: 01:28:12
Год выпуска: 2011

В ролях: Кэмерон Диаз, Джастин Тимберлэйк, Джейсон Сигел, Люси Панч, Филлис Смит, Джон Майкл Хиггинс, Дэйв Аллен, Джиллиан Арменанте, Мэттью Дж. Эванс, Кейтлин Девер

Описание: Учительница средних классов живет гламурной жизнью светской львицы, ходит на работу как на вечеринку и мечтает об увеличении объема собственного бюста. Однако после внезапного разрыва с богатым бойфрендом ее образ жизни резко меняется, хотя сама она это осознает не сразу. Но когда в их школу приходит новый преподаватель, она совершенно теряет голову и начинает охоту за… деньгами.







Видео: 720x384 (1.875:1), 25 fps, AVC(x264) High@L5.1 ~2 616 kbps, 0.38 bit/pixel
Аудио №1: Русский: 48 kHz, AC3, 6 ch, ~384 kbps avg [Профессиональный (полное дублирование)]
Аудио №2: Украинский: 48 kHz, AC3, 6 ch, ~384 kbps avg [Профессиональный (полное дублирование)]

Рип от:TswetkOFF
Релиз-Группа:





General
Unique ID: 252736277867830390229612279517647362012 (0xBE233C8F0E5C2745B23BE2CD0AD257DC)
Complete name: D:\Films\ochen_plohaya_uchilka_[tfile.ru].mkv
Format: Matroska
File size: 2.08 GiB
Duration: 1h 28mn
Overall bit rate: 3 384 Kbps
Encoded date: UTC 2011-08-03 21:16:11
Writing application: mkvmerge v4.6.0 ('Still Crazy After All These Years') сборка от Apr1 2011 21:01:49
Writing library: libebml v1.2.0 + libmatroska v1.1.0

Video
ID: 1
Format: AVC
Format/Info: Advanced Video Codec
Format profile: High@L5.1
Format settings, CABAC: Yes
Format settings, ReFrames: 4 frames
Muxing mode: Header stripping
Codec ID: V_MPEG4/ISO/AVC
Duration: 1h 28mn
Bit rate: 2 616 Kbps
Width: 720 pixels
Height: 384 pixels
Display aspect ratio: 1.875
Frame rate: 25.000 fps
Color space: YUV
Chroma subsampling: 4:2:0
Bit depth: 8 bits
Scan type: Progressive
Bits/(Pixel*Frame): 0.378
Stream size: 1.57 GiB (75%)
Writing library: x264 core 115 r1937 aa21558
Encoding settings: cabac=1 / ref=3 / deblock=1:-1:-1 / analyse=0x3:0x113 / me=hex / subme=7 / psy=1 / psy_rd=1.00:0.20 / mixed_ref=1 / me_range=16 / chroma_me=1 / trellis=1 / 8x8dct=1 / cqm=0 / deadzone=21,11 / fast_pskip=1 / chroma_qp_offset=-3 / threads=3 / sliced_threads=0 / nr=0 / decimate=0 / interlaced=0 / bluray_compat=0 / constrained_intra=0 / bframes=3 / b_pyramid=2 / b_adapt=1 / b_bias=0 / direct=1 / weightb=1 / open_gop=0 / weightp=2 / keyint=250 / keyint_min=25 / scenecut=40 / intra_refresh=0 / rc_lookahead=40 / rc=2pass / mbtree=1 / bitrate=2616 / ratetol=1.0 / qcomp=0.60 / qpmin=0 / qpmax=69 / qpstep=4 / cplxblur=20.0 / qblur=0.5 / ip_ratio=1.40 / aq=1:1.00

Audio #1
ID: 2
Format: AC-3
Format/Info: Audio Coding 3
Mode extension: CM (complete main)
Muxing mode: Header stripping
Codec ID: A_AC3
Duration: 1h 28mn
Bit rate mode: Constant
Bit rate: 384 Kbps
Channel(s): 6 channels
Channel positions: Front: L C R, Side: L R, LFE
Sampling rate: 48.0 KHz
Bit depth: 16 bits
Compression mode: Lossy
Stream size: 242 MiB (11%)

Audio #2
ID: 3
Format: AC-3
Format/Info: Audio Coding 3
Mode extension: CM (complete main)
Muxing mode: Header stripping
Codec ID: A_AC3
Duration: 1h 28mn
Bit rate mode: Constant
Bit rate: 384 Kbps
Channel(s): 6 channels
Channel positions: Front: L C R, Side: L R, LFE
Sampling rate: 48.0 KHz
Bit depth: 16 bits
Compression mode: Lossy
Stream size: 242 MiB (11%)














Поделиться:




реклама партнёра


Вернуться к началу
 Профиль Отправить личное сообщение  
 
   Похожие торренты   Автор   Торрент   Размер 
В этой теме нет новых непрочитанных сообщений. Дробилка / The Grinder / 1 сезон 1-20 серии из 22 (Джейк Кэздан) [Комедия, 2015] WEB-DLRip [NewStudio]

Dracon

14 | 11

6.1 ГБ

В этой теме нет новых непрочитанных сообщений. Чудаки-одиночки / Weird Loners [s01] (Джейк Кэздан, Роберт Коэн, Кристин Джернон) [2015, комедия, HDTVRip | Hamster]

Nickolas3435

36 | 3

1.5 ГБ

В этой теме нет новых непрочитанных сообщений. Трудности ассимиляции (Понаехали!) / Fresh Off the Boat [1 сезон: 1-13 серии из 13] (Линн Шелтон, Роберт Коэн, Джейк Кэздан) [Комедия, 2015] WEB-DLRip [Причудики]

Dracon

15 | 8

3.2 ГБ

В этой теме нет новых непрочитанных сообщений. Трудности ассимиляции (Понаехали!) / Fresh Off the Boat [02 сезон: 01-08 серии из 13] (Линн Шелтон, Роберт Коэн, Джейк Кэздан) [Комедия, 2015] HDTVRip [Причудики]

Dracon

9 | 10

1.98 ГБ

В этой теме нет новых непрочитанных сообщений. УЧИЛКА / TEACHER (Алексей Петрухин) [2015, Драма, боевик, криминал , WEB-DL 1080р ] [DD5.1] [Цифровая лицензия iTunes]

Враг Нароода

4 | 5

5.18 ГБ

В этой теме нет новых непрочитанных сообщений. Джейк "Speed" / Быстрый Джейк / Jake Speed [Приключения, боевик, комедия, 1986] DVDRip, Mvo

salma3

18 | 5

1.46 ГБ

В этой теме нет новых непрочитанных сообщений. [TrickyOldTeacher.com] Sofy Torr aka Sofy Soul (Innocent student gets her pussy fucked by teacher / 07.10.2016) [Old and Young, Hardcore, Teen, Reality, Teacher, SiteRip]

kite

14 | 0

310.13 МБ


Начать новую тему Ответить на тему  [ 1 сообщение ] 




Для Мосгорсуда, Роскомнадзора и рекламодателей:: mosgorsud-torrent[собачка]yandex.ru