Торрент файл
скачать торрент магнет ссылка Добавлен: 15 янв 2012, 21:18
Размер: 745.1 МБ
Сидеров: 7
Личеров: 3
Автор

СообщениеДобавлено: 15 янв 2012, 21:18 

Не в сети
Супермодератор
Аватара пользователя
Дата регистрации:
11 апр 2010, 18:10
Спасибо: 5802 / 7
Сообщения: 56779
Безбрачная неделя / Hall Pass

«Каждый имеет право налево»

Перевод: Профессиональный (полное дублирование)
Субтитры:отсутствуют
Формат: LowHDRip, MKV, H.264, AC3

Страна: США
Режиссер: Бобби Фаррелли, Питер Фаррелли
Жанр: комедия

Продолжительность: 01:45:22
Год выпуска: 2011

В ролях: Оуэн Уилсон, Джейсон Судейкис, Дженна Фишер, Кристина Эпплгейт, Никки Вилан, Ричард Дженкинс, Стефен Мерчант, Ларри Джо Кэмпбелл, Брюс Томас, Тайлер Хёхлин

Описание: Главный герой получает от своей супруги разрешение на свободные отношения с другими женщинами. Похожая ситуация возникает и в семье его лучшего друга. Когда жены героев также решают воспользоваться подобным «пропуском», история принимает новый оборот.







Видео: 704x288 (2.40:1), 23.976 fps, AVC (x264) High@L5.1 ~859 kbps avg, 0.18 bit/pixel
Аудио: 48 kHz, AC3, 2 ch, ~128 kbps avg

Рип от:TswetkOFF
Релиз-Группа:





General
Unique ID: 234053065606077878828103491638668157606 (0xB014FB13429D7930918B709EA539E2A6)
Complete name: D:\Films\hall_pass_[tfile.ru].mkv
Format: Matroska
File size: 745 MiB
Duration: 1h 45mn
Overall bit rate: 989 Kbps
Encoded date: UTC 2011-08-03 23:35:27
Writing application: mkvmerge v4.6.0 ('Still Crazy After All These Years') сборка от Apr1 2011 21:01:49
Writing library: libebml v1.2.0 + libmatroska v1.1.0

Video
ID: 1
Format: AVC
Format/Info: Advanced Video Codec
Format profile: High@L5.1
Format settings, CABAC: Yes
Format settings, ReFrames: 4 frames
Format settings, GOP: M=4, N=32
Codec ID: V_MPEG4/ISO/AVC
Duration: 1h 45mn
Bit rate: 859 Kbps
Width: 704 pixels
Height: 288 pixels
Display aspect ratio: 2.40:1
Frame rate: 23.976 fps
Color space: YUV
Chroma subsampling: 4:2:0
Bit depth: 8 bits
Scan type: Progressive
Bits/(Pixel*Frame): 0.177
Stream size: 634 MiB (85%)
Writing library: x264 core 115 r1937 aa21558
Encoding settings: cabac=1 / ref=2 / deblock=1:-1:-1 / analyse=0x3:0x113 / me=hex / subme=6 / psy=1 / psy_rd=1.00:0.20 / mixed_ref=1 / me_range=16 / chroma_me=1 / trellis=1 / 8x8dct=1 / cqm=0 / deadzone=21,11 / fast_pskip=1 / chroma_qp_offset=-3 / threads=3 / sliced_threads=0 / nr=0 / decimate=0 / interlaced=0 / bluray_compat=0 / constrained_intra=0 / bframes=3 / b_pyramid=2 / b_adapt=1 / b_bias=0 / direct=1 / weightb=1 / open_gop=0 / weightp=1 / keyint=250 / keyint_min=23 / scenecut=40 / intra_refresh=0 / rc_lookahead=30 / rc=2pass / mbtree=1 / bitrate=859 / ratetol=1.0 / qcomp=0.60 / qpmin=0 / qpmax=69 / qpstep=4 / cplxblur=20.0 / qblur=0.5 / ip_ratio=1.40 / aq=1:1.00

Audio
ID: 2
Format: AC-3
Format/Info: Audio Coding 3
Mode extension: CM (complete main)
Codec ID: A_AC3
Duration: 1h 45mn
Bit rate mode: Constant
Bit rate: 128 Kbps
Channel(s): 2 channels
Channel positions: Front: L R
Sampling rate: 48.0 KHz
Bit depth: 16 bits
Compression mode: Lossy
Stream size: 96.5 MiB (13%)













Поделиться:




реклама партнёра


Вернуться к началу
 Профиль Отправить личное сообщение  
 
   Похожие торренты   Автор   Торрент   Размер 
В этой теме нет новых непрочитанных сообщений. Тупой и еще тупее 2 / Dumb and Dumber To (Питер Фаррелли, Бобби Фаррелли) [Комедия, 2014] HDRip, dub [Официальный]

Dracon

44 | 2

2.06 ГБ

В этой теме нет новых непрочитанных сообщений. Тупой и еще тупее 2 / Dumb and Dumber To (Питер Фаррелли, Бобби Фаррелли) [Комедия, 2014] BDRip 720p, dub [официальный]

Dracon

27 | 4

5.66 ГБ

В этой теме нет новых непрочитанных сообщений. Hall Pass Ass/ Безбрачная неделя задницы (Barrett Blade, Wicked)(Alexis Monroe, Christy Mack, Jessa Rhodes, Kendra Lust, Staci Silverstone, Stevie Shae) [2012 г., Gonzo, WEB-DL 400p]

Mitya495

248 | 10

1.34 ГБ

В этой теме нет новых непрочитанных сообщений. Descendant - Pass The Ammunition [2011, Hard Rock, MP3]

PriZraK

0 | 1

43.99 МБ

В этой теме нет новых непрочитанных сообщений. Daryl Hall - Laughing Down Crying [2011, Pop, Rock, Soul, MP3]

PriZraK

0 | 1

103.44 МБ

В этой теме нет новых непрочитанных сообщений. Детектив Бобби / Bobby Jasoos [Триллер, драма, комедия, детектив, 2014] BDRip 720p, Dvo+Sub

salma3

122 | 42

1.4 ГБ

В этой теме нет новых непрочитанных сообщений. VA - Top 40 Nederlandse [Неделя № 49] [Various, 2014] MP3, 320kbps

Dracon

74 | 6

347.64 МБ


Начать новую тему Ответить на тему  [ 1 сообщение ] 




Для Мосгорсуда, Роскомнадзора и рекламодателей:: mosgorsud-torrent[собачка]yandex.ru