Торрент файл
скачать торрент магнет ссылка Добавлен: 15 янв 2012, 21:18
Размер: 1.45 ГБ
Сидеров: 19
Личеров: 3
Автор

СообщениеДобавлено: 15 янв 2012, 21:18 

Не в сети
Супермодератор
Аватара пользователя
Дата регистрации:
11 апр 2010, 18:10
Спасибо: 5798 / 7
Сообщения: 56779
Безбрачная неделя / Hall Pass

«Каждый имеет право налево»

Перевод: Профессиональный (полное дублирование)
Субтитры:отсутствуют
Формат: HDRip, MKV, H.264, AC3

Страна: США
Режиссер: Бобби Фаррелли, Питер Фаррелли
Жанр: комедия

Продолжительность: 01:45:22
Год выпуска: 2011

В ролях: Оуэн Уилсон, Джейсон Судейкис, Дженна Фишер, Кристина Эпплгейт, Никки Вилан, Ричард Дженкинс, Стефен Мерчант, Ларри Джо Кэмпбелл, Брюс Томас, Тайлер Хёхлин

Описание: Главный герой получает от своей супруги разрешение на свободные отношения с другими женщинами. Похожая ситуация возникает и в семье его лучшего друга. Когда жены героев также решают воспользоваться подобным «пропуском», история принимает новый оборот.







Видео: 720x296 (2.40:1), 23.976 fps, AVC (x264) High@L5.1 ~1587 kbps avg, 0.311 bit/pixel
Аудио: 48 kHz, AC3, 6 ch, ~384 kbps avg



Рип от:TswetkOFF
Релиз-Группа:





General
Unique ID: 227714040468168704036014371613267221205 (0xAB5021018628B8B190E6AD4781B45AD5)
Complete name: D:\Films\bezbrachnaya_nedelya_[tfile.ru].mkv
Format: Matroska
File size: 1.45 GiB
Duration: 1h 45mn
Overall bit rate: 1 973 Kbps
Encoded date: UTC 2011-08-04 21:26:28
Writing application: mkvmerge v4.6.0 ('Still Crazy After All These Years') сборка от Apr1 2011 21:01:49
Writing library: libebml v1.2.0 + libmatroska v1.1.0

Video
ID: 1
Format: AVC
Format/Info: Advanced Video Codec
Format profile: High@L5.1
Format settings, CABAC: Yes
Format settings, ReFrames: 4 frames
Format settings, GOP: M=4, N=32
Codec ID: V_MPEG4/ISO/AVC
Duration: 1h 45mn
Bit rate: 1 587 Kbps
Width: 720 pixels
Height: 296 pixels
Display aspect ratio: 2.40:1
Frame rate: 23.976 fps
Color space: YUV
Chroma subsampling: 4:2:0
Bit depth: 8 bits
Scan type: Progressive
Bits/(Pixel*Frame): 0.311
Stream size: 1.14 GiB (79%)
Writing library: x264 core 115 r1937 aa21558
Encoding settings: cabac=1 / ref=3 / deblock=1:-1:-1 / analyse=0x3:0x113 / me=hex / subme=7 / psy=1 / psy_rd=1.00:0.20 / mixed_ref=1 / me_range=16 / chroma_me=1 / trellis=1 / 8x8dct=1 / cqm=0 / deadzone=21,11 / fast_pskip=1 / chroma_qp_offset=-3 / threads=3 / sliced_threads=0 / nr=0 / decimate=0 / interlaced=0 / bluray_compat=0 / constrained_intra=0 / bframes=3 / b_pyramid=2 / b_adapt=1 / b_bias=0 / direct=1 / weightb=1 / open_gop=0 / weightp=2 / keyint=250 / keyint_min=23 / scenecut=40 / intra_refresh=0 / rc_lookahead=40 / rc=2pass / mbtree=1 / bitrate=1587 / ratetol=1.0 / qcomp=0.60 / qpmin=0 / qpmax=69 / qpstep=4 / cplxblur=20.0 / qblur=0.5 / ip_ratio=1.40 / aq=1:1.00

Audio
ID: 2
Format: AC-3
Format/Info: Audio Coding 3
Mode extension: CM (complete main)
Codec ID: A_AC3
Duration: 1h 45mn
Bit rate mode: Constant
Bit rate: 384 Kbps
Channel(s): 6 channels
Channel positions: Front: L C R, Side: L R, LFE
Sampling rate: 48.0 KHz
Bit depth: 16 bits
Compression mode: Lossy
Stream size: 289 MiB (19%)















Поделиться:




реклама партнёра


Вернуться к началу
 Профиль Отправить личное сообщение  
 
   Похожие торренты   Автор   Торрент   Размер 
В этой теме нет новых непрочитанных сообщений. Тупой и еще тупее 2 / Dumb and Dumber To (Питер Фаррелли, Бобби Фаррелли) [Комедия, 2014] HDRip, dub [Официальный]

Dracon

44 | 2

2.06 ГБ

В этой теме нет новых непрочитанных сообщений. Тупой и еще тупее 2 / Dumb and Dumber To (Питер Фаррелли, Бобби Фаррелли) [Комедия, 2014] BDRip 720p, dub [официальный]

Dracon

27 | 4

5.66 ГБ

В этой теме нет новых непрочитанных сообщений. Hall Pass Ass/ Безбрачная неделя задницы (Barrett Blade, Wicked)(Alexis Monroe, Christy Mack, Jessa Rhodes, Kendra Lust, Staci Silverstone, Stevie Shae) [2012 г., Gonzo, WEB-DL 400p]

Mitya495

248 | 10

1.34 ГБ

В этой теме нет новых непрочитанных сообщений. Зал Джимми / Jimmy's Hall [Драма, история, 2014] HDRip, avo

Dracon

24 | 6

1.57 ГБ

В этой теме нет новых непрочитанных сообщений. Descendant - Pass The Ammunition [2011, Hard Rock, MP3]

PriZraK

0 | 1

43.99 МБ

В этой теме нет новых непрочитанных сообщений. Мисс Переполох / She's Funny That Way (Питер Богданович) [Комедия, 2014] HDRip, Dub [iTunes]

Dracon

2147 | 87

1.37 ГБ

В этой теме нет новых непрочитанных сообщений. Монстервилль / R.L. Stine's Monsterville: The Cabinet of Souls (Питер ДеЛуис) [комедия, 2015] HDRip, Dub [Лицензия]

Dracon

3952 | 517

1.37 ГБ


Начать новую тему Ответить на тему  [ 1 сообщение ] 




Для Мосгорсуда, Роскомнадзора и рекламодателей:: mosgorsud-torrent[собачка]yandex.ru