Торрент файл
скачать торрент магнет ссылка Добавлен: 15 янв 2012, 21:18
Размер: 1.47 ГБ
Сидеров: 119
Личеров: 10
Автор

СообщениеДобавлено: 15 янв 2012, 21:18 

Не в сети
Супермодератор
Аватара пользователя
Дата регистрации:
11 апр 2010, 18:10
Спасибо: 5962 / 7
Сообщения: 56762
Очень плохая училка / Bad Teacher

Перевод: Профессиональный (полное дублирование), cубтитры: русские,украинские

Формат: DVDRip, AVI, XviD, AC3

Страна: США

Режиссер: Джейк Кэздан

Жанр: комедия

Продолжительность: 01:28:12

Год выпуска: 2011

В ролях: Кэмерон Диаз, Джастин Тимберлэйк, Джейсон Сигел, Люси Панч, Филлис Смит, Джон Майкл Хиггинс, Дэйв Аллен, Джиллиан Арменанте, Мэттью Дж. Эванс, Кейтлин Девер

Описание: Учительница средних классов живет гламурной жизнью светской львицы, ходит на работу как на вечеринку и мечтает об увеличении объема собственного бюста. Однако после внезапного разрыва с богатым бойфрендом ее образ жизни резко меняется, хотя сама она это осознает не сразу. Но когда в их школу приходит новый преподаватель, она совершенно теряет голову и начинает охоту за… деньгами.

[/field]

Видео: 720x384 (1.88:1), 25 fps, XviD MPEG-4 ~1599 kbps avg, 0.23 bit/pixel

Audio #1:Русский: 48 kHz, AC3 Dolby Digital, 3/2 (L,C,R,l,r) + LFE ch, ~384.00 kbps Профессиональный (полное дублирование)
Audio #2:Украинский: 48 kHz, AC3 Dolby Digital, 3/2 (L,C,R,l,r) + LFE ch, ~384.00 kbps avg Профессиональный (полное дублирование)

Доп. информация: Формат субтитров: softsub(SRT)

General
Complete name: E:\Загрузки\ochen_plohaja_uchilka_[tfile.ru]\ochen_plohaja_uchilka_[tfile.ru].avi
Format: AVI
Format/Info: Audio Video Interleave
File size: 1.47 GiB
Duration: 1h 28mn
Overall bit rate: 2 383 Kbps
Writing application: VirtualDubMod 1.5.4.1 (build 2178/release)
Writing library: VirtualDubMod build 2178/release

Video
ID: 0
Format: MPEG-4 Visual
Format profile: Advanced Simple@L5
Format settings, BVOP: 1
Format settings, QPel: No
Format settings, GMC: No warppoints
Format settings, Matrix: Custom
Codec ID: XVID
Codec ID/Hint: XviD
Duration: 1h 28mn
Bit rate: 1 601 Kbps
Width: 720 pixels
Height: 384 pixels
Display aspect ratio: 1.875
Frame rate: 25.000 fps
Color space: YUV
Chroma subsampling: 4:2:0
Bit depth: 8 bits
Scan type: Progressive
Compression mode: Lossy
Bits/(Pixel*Frame): 0.232
Stream size: 1 010 MiB (67%)
Writing library: XviD 1.2.1 (UTC 2008-12-04)

Audio #1
ID: 1
Format: AC-3
Format/Info: Audio Coding 3
Mode extension: CM (complete main)
Codec ID: 2000
Duration: 1h 28mn
Bit rate mode: Constant
Bit rate: 384 Kbps
Channel(s): 6 channels
Channel positions: Front: L C R, Side: L R, LFE
Sampling rate: 48.0 KHz
Bit depth: 16 bits
Compression mode: Lossy
Stream size: 242 MiB (16%)
Alignment: Split accross interleaves
Interleave, duration: 40 ms (1.00 video frame)
Interleave, preload duration: 500 ms

Audio #2
ID: 2
Format: AC-3
Format/Info: Audio Coding 3
Mode extension: CM (complete main)
Codec ID: 2000
Duration: 1h 28mn
Bit rate mode: Constant
Bit rate: 384 Kbps
Channel(s): 6 channels
Channel positions: Front: L C R, Side: L R, LFE
Sampling rate: 48.0 KHz
Bit depth: 16 bits
Compression mode: Lossy
Stream size: 242 MiB (16%)
Alignment: Split accross interleaves
Interleave, duration: 40 ms (1.00 video frame)
Interleave, preload duration: 500 ms









Поделиться:




реклама партнёра


Вернуться к началу
 Профиль Отправить личное сообщение  
 
   Похожие торренты   Автор   Торрент   Размер 
В этой теме нет новых непрочитанных сообщений. Дробилка / The Grinder / 1 сезон 1-20 серии из 22 (Джейк Кэздан) [Комедия, 2015] WEB-DLRip [NewStudio]

Dracon

14 | 11

6.1 ГБ

В этой теме нет новых непрочитанных сообщений. Чудаки-одиночки / Weird Loners [s01] (Джейк Кэздан, Роберт Коэн, Кристин Джернон) [2015, комедия, HDTVRip | Hamster]

Nickolas3435

36 | 3

1.5 ГБ

В этой теме нет новых непрочитанных сообщений. Трудности ассимиляции (Понаехали!) / Fresh Off the Boat [1 сезон: 1-13 серии из 13] (Линн Шелтон, Роберт Коэн, Джейк Кэздан) [Комедия, 2015] WEB-DLRip [Причудики]

Dracon

15 | 8

3.2 ГБ

В этой теме нет новых непрочитанных сообщений. Трудности ассимиляции (Понаехали!) / Fresh Off the Boat [02 сезон: 01-08 серии из 13] (Линн Шелтон, Роберт Коэн, Джейк Кэздан) [Комедия, 2015] HDTVRip [Причудики]

Dracon

9 | 11

1.98 ГБ

В этой теме нет новых непрочитанных сообщений. УЧИЛКА / TEACHER (Алексей Петрухин) [2015, Драма, боевик, криминал , WEB-DL 1080р ] [DD5.1] [Цифровая лицензия iTunes]

Враг Нароода

4 | 5

5.18 ГБ

В этой теме нет новых непрочитанных сообщений. Teacher Gave Me An F 4 / Училка поставила мне кол 4 (Studio 69) [2013 г., Anal, Oral, Big Boobs, Mature, Facial, Lingerie, Glasses, All Sex, Teachers, VOD]

max77777

2 | 15

1.49 ГБ

В этой теме нет новых непрочитанных сообщений. [TrickyOldTeacher.com] Sofy Torr aka Sofy Soul (Innocent student gets her pussy fucked by teacher / 07.10.2016) [Old and Young, Hardcore, Teen, Reality, Teacher, SiteRip]

kite

14 | 0

310.13 МБ


Начать новую тему Ответить на тему  [ 1 сообщение ] 




Для Мосгорсуда, Роскомнадзора и рекламодателей:: mosgorsud-torrent[собачка]yandex.ru