Торрент файл
скачать торрент магнет ссылка Добавлен: 15 янв 2012, 21:17
Размер: 745.54 МБ
Сидеров: 0
Личеров: 5
Автор

СообщениеДобавлено: 15 янв 2012, 21:17 

Не в сети
Супермодератор
Аватара пользователя
Дата регистрации:
11 апр 2010, 18:10
Спасибо: 5802 / 7
Сообщения: 56779
Убить Боно / Killing Bono


«Они хотели переплюнуть U2»

Перевод: Профессиональный (многоголосый, закадровый), cубтитры: отсутствуют
Формат: LowHDRip-AVC, MKV, H.264, AC3

Страна: Великобритания
Режиссер: Ник Хэмм
Жанр: комедия

Продолжительность: 01:48:56
Год выпуска: 2011

В ролях: Бен Барнс, Роберт Шиэн, Кристен Риттер, Пит Постлетуэйт, Джастин Уоддэлл, Питер Серафинович, Ральф Браун, Люк Тредэвэй, Мартин МакКанн, Хью О’Конор

Описание: Два неудачливых брата-ирландца Нил и Айвен МакКормики в конце 70-х создали в Дублине группу. К несчастью для парней, их одноклассники сделали то же самое — создали группу и назвали ее U2. Как вы понимаете, шансов у братьев не было…





Видео: 704 x 288 (2.40:1), 24 fps, AVC(х264) High@L5.1, ~789 kbps, 0.16 bit/pixel
Аудио: 48 kHz, AC3 Dolby Digital, 2 ch, ~128 kbps

Рип от:TswetkOFF
Релиз-Группа:





General
Unique ID: 193499830029455424270644656929316286647 (0x9192B6313BFFAD4D852A478BFD5C30B7)
Complete name: D:\Films\Killing Bono745.mkv
Format: Matroska
File size: 746 MiB
Duration: 1h 53mn
Overall bit rate: 919 Kbps
Encoded date: UTC 2011-08-08 00:03:38
Writing application: mkvmerge v4.6.0 ('Still Crazy After All These Years') сборка от Apr1 2011 21:01:49
Writing library: libebml v1.2.0 + libmatroska v1.1.0

Video
ID: 1
Format: AVC
Format/Info: Advanced Video Codec
Format profile: High@L5.1
Format settings, CABAC: Yes
Format settings, ReFrames: 4 frames
Format settings, GOP: M=4, N=32
Codec ID: V_MPEG4/ISO/AVC
Duration: 1h 53mn
Bit rate: 789 Kbps
Width: 704 pixels
Height: 288 pixels
Display aspect ratio: 2.40:1
Frame rate: 24.000 fps
Color space: YUV
Chroma subsampling: 4:2:0
Bit depth: 8 bits
Scan type: Progressive
Bits/(Pixel*Frame): 0.162
Stream size: 627 MiB (84%)
Writing library: x264 core 115 r1937 aa21558
Encoding settings: cabac=1 / ref=2 / deblock=1:-1:-1 / analyse=0x3:0x113 / me=hex / subme=4 / psy=1 / psy_rd=0.00:0.20 / mixed_ref=0 / me_range=16 / chroma_me=1 / trellis=1 / 8x8dct=1 / cqm=0 / deadzone=21,11 / fast_pskip=1 / chroma_qp_offset=-1 / threads=3 / sliced_threads=0 / nr=0 / decimate=0 / interlaced=0 / bluray_compat=0 / constrained_intra=0 / bframes=3 / b_pyramid=2 / b_adapt=1 / b_bias=0 / direct=1 / weightb=1 / open_gop=0 / weightp=1 / keyint=250 / keyint_min=24 / scenecut=40 / intra_refresh=0 / rc_lookahead=20 / rc=2pass / mbtree=1 / bitrate=789 / ratetol=1.0 / qcomp=0.60 / qpmin=0 / qpmax=69 / qpstep=4 / cplxblur=20.0 / qblur=0.5 / ip_ratio=1.40 / aq=1:1.00

Audio
ID: 2
Format: AC-3
Format/Info: Audio Coding 3
Mode extension: CM (complete main)
Codec ID: A_AC3
Duration: 1h 53mn
Bit rate mode: Constant
Bit rate: 128 Kbps
Channel(s): 2 channels
Channel positions: Front: L R
Sampling rate: 48.0 KHz
Bit depth: 16 bits
Compression mode: Lossy
Stream size: 104 MiB (14%)











Поделиться:




реклама партнёра


Вернуться к началу
 Профиль Отправить личное сообщение  
 
   Похожие торренты   Автор   Торрент   Размер 
В этой теме нет новых непрочитанных сообщений. Killing Floor - Killing Floor (1969) [2007, Blues Rock, MP3]

PriZraK

0 | 1

117.79 МБ

В этой теме нет новых непрочитанных сообщений. Как убить женушку / Tout doit disparaître [Комедия, 1997] DVDRip, Mvo

salma3

46 | 5

1.37 ГБ

В этой теме нет новых непрочитанных сообщений. Как убить женушку / Tout Doit Disparaitre [комедия, 1997] DVD5, Mvo

salma3

0 | 4

3.85 ГБ

В этой теме нет новых непрочитанных сообщений. Bayside - Killing Time [2011, Punk, Alt. Rock, MP3]

PriZraK

0 | 1

56.24 МБ

В этой теме нет новых непрочитанных сообщений. Riseoffate – Killing Loneliness [EP] [2011, Metalcore, Post-Hardcore, MP3]

PriZraK

0 | 1

39.08 МБ

В этой теме нет новых непрочитанных сообщений. Девчонка, которую убить мало / Holka na zabití [криминал, комедия, детектив, 1975] DVDRip, Avo

salma3

26 | 3

1.46 ГБ

В этой теме нет новых непрочитанных сообщений. Кто убивает великих европейских поваров? / Who Is Killing the Great Chefs of Europe? [комедия, детектив, криминал, 1978] DVDRip, Avo

salma3

9 | 3

1.52 ГБ


Начать новую тему Ответить на тему  [ 1 сообщение ] 




Для Мосгорсуда, Роскомнадзора и рекламодателей:: mosgorsud-torrent[собачка]yandex.ru