Торрент файл
скачать торрент магнет ссылка Добавлен: 15 янв 2012, 21:17
Размер: 1.45 ГБ
Сидеров: 6
Личеров: 5
Автор

СообщениеДобавлено: 15 янв 2012, 21:17 

Не в сети
Супермодератор
Аватара пользователя
Дата регистрации:
11 апр 2010, 18:10
Спасибо: 5799 / 7
Сообщения: 56779
Убить Боно / Killing Bono


«Они хотели переплюнуть U2»

Перевод: Профессиональный (многоголосый, закадровый), cубтитры: отсутствуют
Формат: HDRip-AVC, MKV, H.264, AC3

Страна: Великобритания
Режиссер: Ник Хэмм
Жанр: комедия

Продолжительность: 01:48:56
Год выпуска: 2011

В ролях: Бен Барнс, Роберт Шиэн, Кристен Риттер, Пит Постлетуэйт, Джастин Уоддэлл, Питер Серафинович, Ральф Браун, Люк Тредэвэй, Мартин МакКанн, Хью О’Конор

Описание: Два неудачливых брата-ирландца Нил и Айвен МакКормики в конце 70-х создали в Дублине группу. К несчастью для парней, их одноклассники сделали то же самое — создали группу и назвали ее U2. Как вы понимаете, шансов у братьев не было…





Видео: 720 x 296 (2.40:1), 24 fps, AVC(х264) High@L5.1, ~1446 kbps, 0.28 bit/pixel
Аудио: 48 kHz, AC3 Dolby Digital, 6 ch, ~384 kbps

Рип от:TswetkOFF
Релиз-Группа:





General
Unique ID: 186823673010917976753523549399249513624 (0x8C8CEE3CEE01AD1AB7FFB362C0C6EC9
Complete name: D:\Films\ubit_bono_[tfile.ru].mkv
Format: Matroska
File size: 1.45 GiB
Duration: 1h 53mn
Overall bit rate: 1 830 Kbps
Encoded date: UTC 2011-08-08 02:49:05
Writing application: mkvmerge v4.6.0 ('Still Crazy After All These Years') сборка от Apr1 2011 21:01:49
Writing library: libebml v1.2.0 + libmatroska v1.1.0

Video
ID: 1
Format: AVC
Format/Info: Advanced Video Codec
Format profile: High@L5.1
Format settings, CABAC: Yes
Format settings, ReFrames: 4 frames
Codec ID: V_MPEG4/ISO/AVC
Duration: 1h 53mn
Bit rate: 1 446 Kbps
Width: 720 pixels
Height: 296 pixels
Display aspect ratio: 2.40:1
Frame rate: 24.000 fps
Color space: YUV
Chroma subsampling: 4:2:0
Bit depth: 8 bits
Scan type: Progressive
Bits/(Pixel*Frame): 0.283
Stream size: 1.12 GiB (77%)
Writing library: x264 core 115 r1937 aa21558
Encoding settings: cabac=1 / ref=3 / deblock=1:-1:-1 / analyse=0x3:0x113 / me=hex / subme=7 / psy=1 / psy_rd=1.00:0.20 / mixed_ref=1 / me_range=16 / chroma_me=1 / trellis=1 / 8x8dct=1 / cqm=0 / deadzone=21,11 / fast_pskip=1 / chroma_qp_offset=-3 / threads=3 / sliced_threads=0 / nr=0 / decimate=0 / interlaced=0 / bluray_compat=0 / constrained_intra=0 / bframes=3 / b_pyramid=2 / b_adapt=1 / b_bias=0 / direct=1 / weightb=1 / open_gop=0 / weightp=2 / keyint=250 / keyint_min=24 / scenecut=40 / intra_refresh=0 / rc_lookahead=40 / rc=2pass / mbtree=1 / bitrate=1446 / ratetol=1.0 / qcomp=0.60 / qpmin=0 / qpmax=69 / qpstep=4 / cplxblur=20.0 / qblur=0.5 / ip_ratio=1.40 / aq=1:1.00

Audio
ID: 2
Format: AC-3
Format/Info: Audio Coding 3
Mode extension: CM (complete main)
Codec ID: A_AC3
Duration: 1h 53mn
Bit rate mode: Constant
Bit rate: 384 Kbps
Channel(s): 6 channels
Channel positions: Front: L C R, Side: L R, LFE
Sampling rate: 48.0 KHz
Bit depth: 16 bits
Compression mode: Lossy
Stream size: 312 MiB (21%)













Поделиться:




реклама партнёра


Вернуться к началу
 Профиль Отправить личное сообщение  
 
   Похожие торренты   Автор   Торрент   Размер 
В этой теме нет новых непрочитанных сообщений. Killing Floor - Killing Floor (1969) [2007, Blues Rock, MP3]

PriZraK

0 | 1

117.79 МБ

В этой теме нет новых непрочитанных сообщений. Убить с интригой / Jian hua yan yu Jiang Nan [боевик, драма, 1977] HDRip, Mvo

salma3

11 | 2

1.46 ГБ

В этой теме нет новых непрочитанных сообщений. Убить человека / Matar a un hombre / To kill a man [драма, 2014] HDRip, avo

Dracon

666 | 15

1.4 ГБ

В этой теме нет новых непрочитанных сообщений. Сезон убийц / Killing Season [Боевик, Триллер, 2013] HDRip, Mvo

Ανδρέας

262 | 5

1.37 ГБ

В этой теме нет новых непрочитанных сообщений. Сезон убийц / Killing Season [Боевик, Триллер, 2013] HDRip, Mvo [Лицензия]

Dracon

99 | 4

1.37 ГБ

В этой теме нет новых непрочитанных сообщений. Сезон убийц / Killing Season [триллер, драма, боевик, 2013] HDRip, Mvo [КПК]

salma3

4 | 3

785.5 МБ

В этой теме нет новых непрочитанных сообщений. Убийство Кеннеди / Killing Kennedy [Драма, история, реставрация, криминал, 2013] HDRip, Avo

Dracon

52 | 3

1.36 ГБ


Начать новую тему Ответить на тему  [ 1 сообщение ] 




Для Мосгорсуда, Роскомнадзора и рекламодателей:: mosgorsud-torrent[собачка]yandex.ru