Торрент файл
скачать торрент магнет ссылка Добавлен: 15 янв 2012, 21:17
Размер: 1.66 ГБ
Сидеров: 17
Личеров: 6
Автор

СообщениеДобавлено: 15 янв 2012, 21:17 

Не в сети
Супермодератор
Аватара пользователя
Дата регистрации:
11 апр 2010, 18:10
Спасибо: 5801 / 7
Сообщения: 56779
Арлетт / Arlette


Перевод: Профессиональный (многоголосый, закадровый)
Субтитры: отсутствуют
Формат: DVDRip, MKV, H.264, AC3
Страна: Франция
Режиссер: Клод Зиди
Жанр: комедия, мелодрама, криминал
Продолжительность: 01:32:18
Год выпуска: 1997
В ролях: Жозиан Баласко, Кристофер Ламберт, Эннио Фантастичини, Стефан Одран, Жан-Мари Бигар, Армель, Мартин Ламотт, Жан-Пьер Кастальди, France Zobda, Жан-Клод Буллон

Описание: Официантка придорожной забегаловки «Сороконожка» в глубинке Франции, Арлетт живёт простой провинциальной жизнью, без каких-либо неожиданностей или приключений. Она мечтает о браке со своим парнем Виктором, водителем грузовика, который жениться вовсе не собирается. Но она не в курсе, что её умерший отец, владелец сети крупных казино, оставил ей наследство, из-за которого она стала мишенью для мафии. Воротилы игорного бизнеса не желают выпускать деньги из своих лап и начинают «операцию» по выдаче Арлетт замуж за подставного альфонса. Наивная официантка искренне привязывается к профессиональному обольстителю благодаря его изысканным ухаживаниям. Посланец и впрямь, изо всех сил старается быть очаровательным — иначе его убьют. Но естественное и, одновременно, эксцентричное поведение Арлетт также не оставляет его равнодушным...



Видео: 720х392 (1.84:1), MPEG4 AVC (x264) High@L3.0, ~2000 Kbps, 0.283 bit/pix
Аудио #1: Русский: 48 kHz, AC3 Dolby Digital, 2/0 (L,R), ~192 kbps [Профессиональный многоголосый]
Аудио #2: Русский: 48 kHz, AC3 Dolby Digital, 2/1 (L,R) + LFE ch, ~384 kbps [Профессиональный двухголосый]

Доп. информация: Время фильма уменьшено, за счёт вырезанных титров в конце видеофайла.

Рип от:

Скачать сэмпл

Общее
Уникальный идентификатор: 254920395665144535809775684944996443532 (0xBFC7E1E156DA7019A9A1C9BB3785A58C)
Полное имя: F:\Файловое хранилище\Видео-хранилище\Арлетт\Arlette.1997.DVDRip.x264.2rus.mkv
Формат: Matroska
Версия формата: Version 2
Размер файла: 1,66 Гбайт
Продолжительность: 1 ч. 32 м.
Общий поток: 2578 Кбит/сек
Дата кодирования: UTC 2011-08-09 16:39:31
Программа кодирования: mkvmerge v4.8.0 ('I Got The...') сборка от May 24 2011 03:12:58
Библиотека кодирования: libebml v1.2.0 + libmatroska v1.1.0

Видео
Идентификатор: 1
Формат: AVC
Формат/Информация: Advanced Video Codec
Профиль формата: High@L3.0
Параметр CABAC формата: Да
Параметр ReFrames формата: 4 кадра
Параметры GOP формата: M=3, N=4
Идентификатор кодека: V_MPEG4/ISO/AVC
Продолжительность: 1 ч. 32 м.
Битрейт: 2000 Кбит/сек
Ширина: 720 пикс.
Высота: 392 пикс.
Соотношение сторон: 16:9
Частота кадров: 25,000 кадр/сек
Цветовое пространство: YUV
Подвыборка цветности: 4:2:0
Битовая глубина: 8 бит
Тип развёртки: Прогрессивная
Бит/(Пиксели*Кадры): 0.283
Размер потока: 1,26 Гбайт (76%)
Заголовок: Arlette; x264; 2000 kbps
Библиотека кодирования: x264 core 115 r2008bm 4c552d8
Настройки программы: cabac=1 / ref=3 / deblock=1:0:0 / analyse=0x3:0x113 / me=hex / subme=7 / psy=1 / psy_rd=1.00:0.00 / mixed_ref=1 / me_range=16 / chroma_me=1 / trellis=1 / 8x8dct=1 / cqm=0 / deadzone=21,11 / fast_pskip=1 / chroma_qp_offset=-2 / threads=12 / sliced_threads=0 / nr=0 / decimate=1 / interlaced=0 / bluray_compat=0 / constrained_intra=0 / bframes=3 / b_pyramid=2 / b_adapt=1 / b_bias=0 / direct=1 / weightb=1 / open_gop=0 / weightp=2 / keyint=250 / keyint_min=25 / scenecut=40 / intra_refresh=0 / rc_lookahead=40 / rc=2pass / mbtree=1 / bitrate=2000 / ratetol=1.0 / qcomp=0.60 / qpmin=0 / qpmax=69 / qpstep=4 / cplxblur=20.0 / qblur=0.5 / ip_ratio=1.40 / aq=1:1.00

Аудио #1
Идентификатор: 2
Формат: AC-3
Формат/Информация: Audio Coding 3
Расширение режима: CM (complete main)
Идентификатор кодека: A_AC3
Продолжительность: 1 ч. 32 м.
Вид битрейта: Постоянный
Битрейт: 192 Кбит/сек
Каналы: 2 канала
Расположение каналов: Front: L R
Частота: 48,0 КГц
Битовая глубина: 16 бит
Метод сжатия: С потерями
Размер потока: 127 Мбайт (7%)
Заголовок: AC3; 2.0 ch; 192 kbps
Язык: Russian

Аудио #2
Идентификатор: 3
Формат: AC-3
Формат/Информация: Audio Coding 3
Расширение режима: CM (complete main)
Идентификатор кодека: A_AC3
Продолжительность: 1 ч. 32 м.
Вид битрейта: Постоянный
Битрейт: 384 Кбит/сек
Каналы: 3 канала
Расположение каналов: Front: L R, LFE
Частота: 48,0 КГц
Битовая глубина: 16 бит
Метод сжатия: С потерями
Размер потока: 254 Мбайт (15%)
Заголовок: AC3; 2.1 ch; 384 kbps
Язык: Russian


















Поделиться:




реклама партнёра


Вернуться к началу
 Профиль Отправить личное сообщение  
 
   Похожие торренты   Автор   Торрент   Размер 
В этой теме нет новых непрочитанных сообщений. Двое / Deux (Клод Зиди / Claude Zidi) [1989г., мелодрама, драма, DVDRip] MVO

Alfredovich

6 | 3

1.46 ГБ

В этой теме нет новых непрочитанных сообщений. Надувательство / Shooting Fish [мелодрама, комедия, криминал, 1997] DVDRip, Mvo

salma3

0 | 0

1.46 ГБ

В этой теме нет новых непрочитанных сообщений. Менее привычная жизнь / A Life Less Ordinary [фэнтези, драма, мелодрама, комедия, криминал, 1997] BDRip 720p, Mvo

salma3

63 | 31

4.53 ГБ

В этой теме нет новых непрочитанных сообщений. Попутчики / Going All the Way [драма, мелодрама, комедия, 1997] DVDRip, Mvo

salma3

15 | 2

1.46 ГБ

В этой теме нет новых непрочитанных сообщений. Мистер Крутой / Yat goh hiu yan [боевик, криминал, комедия, 1997] DVDRip, Mvo

salma3

79 | 16

1.37 ГБ

В этой теме нет новых непрочитанных сообщений. Пощечина / La gifle (Клод Пиното / Claude Pinoteau) [1974г., Франция, Италия, драма, мелодрама, комедия, BDRip-AVC] DVO + MVO + Sub

Alfredovich

2 | 2

2.18 ГБ

В этой теме нет новых непрочитанных сообщений. Опасное трио / Lewis & Clark & George [триллер, комедия, криминал, 1997] DVDRip, Mvo+Avo

salma3

126 | 18

1.37 ГБ


Начать новую тему Ответить на тему  [ 1 сообщение ] 




Для Мосгорсуда, Роскомнадзора и рекламодателей:: mosgorsud-torrent[собачка]yandex.ru