Торрент файл
скачать торрент магнет ссылка Добавлен: 15 янв 2012, 21:16
Размер: 1.45 ГБ
Сидеров: 174
Личеров: 8
Автор

СообщениеДобавлено: 15 янв 2012, 21:16 

Не в сети
Супермодератор
Аватара пользователя
Дата регистрации:
11 апр 2010, 18:10
Спасибо: 5960 / 7
Сообщения: 56765
Мальчишник в Вегасе [Расширенная версия] / The Hangover [Extended]

«Некоторым Вегас просто не по зубам.»

Перевод: Профессиональный (полное дублирование)
Субтитры:отсутствуют
Формат: HDRip, MKV, H.264, AC3

Страна: США
Режиссер: Тодд Филлипс
Жанр: комедия

Продолжительность: 01:47:53
Год выпуска: 2009

В ролях: Брэдли Купер, Эд Хелмс, Зэк Галифианакис, Джастин Барта, Хизер Грэм, Александра Баррези, Джеффри Тэмбор, Кен Жонг, Рэйчел Харрис, Майк Тайсон, Майк Еппс, Джернард Буркс, Роб Риггл, Клео Кинг, Bryan Callen, Мэтт Уолш, Йен Энтони Дэйл, Майкл Ли, Сондра Карри, Джиллиан Вигмэн, Натали Фэй

Описание: В разгар мальчишника трое друзей потеряли жениха. И это за 40 часов до свадьбы! Теперь им придётся восстановить ход своих мыслей, одурманенных накануне алкоголем, чтобы выяснить, что же произошло.

Они мечтали устроить незабываемый мальчишник в Вегасе. Но теперь им действительно необходимо вспомнить, что именно происходило! Чей ребенок сидит в шкафу шикарного номера отеля? Как в ванную попал тигр? Почему у одного из них нет зуба? И, самое главное, куда делся жених?!

То, что парни вытворяли на вечеринке, не идет ни в какое сравнение с тем, что им придется сделать на трезвую голову, когда они будут шаг за шагом восстанавливать события прошлой ночи, каждый раз — новая зацепка.








Видео: 720x296 (2.40:1), 23.976 fps, AVC (x264) High@L4.1 ~1541 kbps avg, 0.30 bit/pixel
Аудио: 48 kHz, AC3, 6 ch, ~384 kbps avg

Рип от:TswetkOFF
Релиз-Группа:

Доп. информация: Дополнительные эпизоды расширенной версии (9 минут) переведены профессиональным многоголосым переводом (Киномания).




General
Unique ID: 210166272488271896988267095268459344786 (0x9E1C8D3F6473468CA7DBEBC82AA4F392)
Complete name: D:\Films\malchishnik_v_vegase_[tfile.ru].mkv
Format: Matroska
File size: 1.45 GiB
Duration: 1h 47mn
Overall bit rate: 1 926 Kbps
Encoded date: UTC 2011-08-12 12:18:22
Writing application: mkvmerge v4.6.0 ('Still Crazy After All These Years') сборка от Apr1 2011 21:01:49
Writing library: libebml v1.2.0 + libmatroska v1.1.0

Video
ID: 1
Format: AVC
Format/Info: Advanced Video Codec
Format profile: High@L4.1
Format settings, CABAC: Yes
Format settings, ReFrames: 4 frames
Codec ID: V_MPEG4/ISO/AVC
Duration: 1h 47mn
Bit rate: 1 541 Kbps
Width: 720 pixels
Height: 296 pixels
Display aspect ratio: 2.40:1
Frame rate: 23.976 fps
Color space: YUV
Chroma subsampling: 4:2:0
Bit depth: 8 bits
Scan type: Progressive
Bits/(Pixel*Frame): 0.302
Stream size: 1.13 GiB (78%)
Writing library: x264 core 115 r1937 aa21558
Encoding settings: cabac=1 / ref=2 / deblock=1:-1:-1 / analyse=0x3:0x113 / me=hex / subme=6 / psy=1 / psy_rd=1.00:0.20 / mixed_ref=1 / me_range=16 / chroma_me=1 / trellis=1 / 8x8dct=1 / cqm=0 / deadzone=21,11 / fast_pskip=1 / chroma_qp_offset=-3 / threads=3 / sliced_threads=0 / nr=0 / decimate=0 / interlaced=0 / bluray_compat=0 / constrained_intra=0 / bframes=3 / b_pyramid=2 / b_adapt=1 / b_bias=0 / direct=1 / weightb=1 / open_gop=0 / weightp=1 / keyint=250 / keyint_min=23 / scenecut=40 / intra_refresh=0 / rc_lookahead=30 / rc=2pass / mbtree=1 / bitrate=1541 / ratetol=1.0 / qcomp=0.60 / qpmin=0 / qpmax=69 / qpstep=4 / cplxblur=20.0 / qblur=0.5 / ip_ratio=1.40 / aq=1:1.00

Audio
ID: 2
Format: AC-3
Format/Info: Audio Coding 3
Mode extension: CM (complete main)
Codec ID: A_AC3
Duration: 1h 47mn
Bit rate mode: Constant
Bit rate: 384 Kbps
Channel(s): 6 channels
Channel positions: Front: L C R, Side: L R, LFE
Sampling rate: 48.0 KHz
Bit depth: 16 bits
Compression mode: Lossy
Stream size: 296 MiB (20%)













Поделиться:




реклама партнёра


Вернуться к началу
 Профиль Отправить личное сообщение  
 
   Похожие торренты   Автор   Торрент   Размер 
В этой теме нет новых непрочитанных сообщений. Мальчишник в Вегасе / The Hangover [комедия, 2009] WEB-DLRip-AVC, Dub [Theatrical Cut] [Open Matte]

salma3

2 | 2

2.18 ГБ

В этой теме нет новых непрочитанных сообщений. Девичник в Вегасе / Bridesmaids [Комедия, 2011] BDRip-AVC, Dub [Расширенная версия]

salma3

125 | 45

746.56 МБ

В этой теме нет новых непрочитанных сообщений. Отряд самоубийц [Расширенная версия] / Suicide Squad [фантастика, боевик, триллер, 2016] BDRip, Avo+Sub [Гаврилов] [Extended Cut]

salma3

258 | 32

2.19 ГБ

В этой теме нет новых непрочитанных сообщений. Белоснежка и Охотник 2 [Расширенная версия] / The Huntsman: Winter's War [2016, фэнтези, боевик, приключения, BDRip, Avo [Гаврилов] [Расширенная версия]

salma3

61 | 15

1.46 ГБ

В этой теме нет новых непрочитанных сообщений. Шпион / Spy (Пол Фиг) [Боевик, комедия, 2015] HDRip, Dub [Расширенная версия | iTunes]

Dracon

241 | 12

1.37 ГБ

В этой теме нет новых непрочитанных сообщений. Шпион / Spy (Пол Фиг) [Боевик, комедия, 2015] HDRip, Dub [Расширенная версия | iTunes]

Dracon

205 | 4

2.05 ГБ

В этой теме нет новых непрочитанных сообщений. Крепкий орешек: Хороший день, чтобы умереть / A Good Day to Die Hard (Джон Мур / John Moore) [2013, США, боевик, триллер, криминал, HQRip-AVC] [Расширенная версия / Extended Сut] Dub

PriZraK

53 | 1

1.43 ГБ


Начать новую тему Ответить на тему  [ 1 сообщение ] 




Для Мосгорсуда, Роскомнадзора и рекламодателей:: mosgorsud-torrent[собачка]yandex.ru