Торрент файл
скачать торрент магнет ссылка Добавлен: 15 янв 2012, 21:12
Размер: 2.17 ГБ
Сидеров: 5
Личеров: 3
Автор

СообщениеДобавлено: 15 янв 2012, 21:12 

Не в сети
Супермодератор
Аватара пользователя
Дата регистрации:
11 апр 2010, 18:10
Спасибо: 5802 / 7
Сообщения: 56779
[b]Мисс Никто / Miss Nobody[/b]

Перевод: Профессиональный (полное дублирование), cубтитры: русские

Формат: HDRip-AVC, MKV, H.264, AC3

Страна: США

Режиссер: Тим Кокс

Жанр: комедия, криминал

Продолжительность: 01:30:08

Год выпуска: 2010

В ролях: Лесли Бибб, Адам Голдберг, Кэти Бейкер, Мисси Пайл, Брэндон Рут, Дэвид Энтони Хиггинс, Джеффри Льюис, Вивика А. Фокс, Патрик Фишлер, Пола Маршалл

Описание: Саре Джейн 30 лет, она обычная офисная «серая мышь»: работает секретаршей в фармацевтической корпорации и мечтает подняться хотя бы на ступеньку выше по карьерной лестнице. Подделав резюме, Саре удается занять вакансию топ-менеджера, но — всего лишь на один день: более проворные коллеги тоже умеют плести интриги!

В приступе откровения новый начальник раскрывает Саре нехитрую тайну карьерного роста: необходимо «всего лишь» избавится от пятерых топ-менеджеров компании. И тут Саре Джейн приходит в голову весьма нетривиальный план. Девушке осталось всего лишь поверить, что она не «офисный планктон», а прирожденная и изобретательная… убийца.


[/field]

Видео: 1084x464 (2.35:1), 24 fps,AVC, х264, High@L4.1,~2 553 kbps avg, 0.211 bit/pixel

Аудио #1: Русский: 48 kHz, AC3 Dolby Digital, 3/2 (L,C,R,l,r) + LFE ch, ~448.00 kbps avg Профессиональный (полное дублирование)
Аудио #2:Английский: 48 kHz, AC3 Dolby Digital, 3/2 (L,C,R,l,r) + LFE ch, ~448.00 kbps avg [Оригинал]

Доп. информация: Премьера (РФ) 21 июля 2011, «Каравелла DDC»

General
Unique ID: 219266201977177310734115752465744962605 (0xA4F5226937A96A70BF3D11B49A12A42D)
Complete name: E:\Загрузки\Miss.Nikto.2010.BDRip-AVС.mkv
Format: Matroska
File size: 2.17 GiB
Duration: 1h 30mn
Overall bit rate: 3 446 Kbps
Encoded date: UTC 2011-08-22 12:06:33
Writing application: mkvmerge v4.6.0 ('Still Crazy After All These Years') сборка от Apr1 2011 21:01:49
Writing library: libebml v1.2.0 + libmatroska v1.1.0

Video
ID: 1
Format: AVC
Format/Info: Advanced Video Codec
Format profile: High@L4.1
Format settings, CABAC: Yes
Format settings, ReFrames: 10 frames
Codec ID: V_MPEG4/ISO/AVC
Duration: 1h 30mn
Bit rate: 2 553 Kbps
Width: 1 084 pixels
Height: 464 pixels
Display aspect ratio: 2.35:1
Frame rate: 24.000 fps
Color space: YUV
Chroma subsampling: 4:2:0
Bit depth: 8 bits
Scan type: Progressive
Bits/(Pixel*Frame): 0.211
Stream size: 1.56 GiB (72%)
Writing library: x264 core 115 r1937 aa21558
Encoding settings: cabac=1 / ref=10 / deblock=1:-2:-1 / analyse=0x3:0x133 / me=umh / subme=9 / psy=1 / psy_rd=1.00:0.00 / mixed_ref=1 / me_range=32 / chroma_me=1 / trellis=2 / 8x8dct=1 / cqm=0 / deadzone=21,11 / fast_pskip=1 / chroma_qp_offset=-2 / threads=6 / sliced_threads=0 / nr=0 / decimate=1 / interlaced=0 / bluray_compat=0 / constrained_intra=0 / bframes=8 / b_pyramid=2 / b_adapt=2 / b_bias=0 / direct=3 / weightb=1 / open_gop=0 / weightp=2 / keyint=250 / keyint_min=24 / scenecut=40 / intra_refresh=0 / rc_lookahead=60 / rc=2pass / mbtree=1 / bitrate=2553 / ratetol=1.0 / qcomp=0.60 / qpmin=0 / qpmax=69 / qpstep=4 / cplxblur=20.0 / qblur=0.5 / ip_ratio=1.40 / aq=1:1.00

Audio #1
ID: 2
Format: AC-3
Format/Info: Audio Coding 3
Mode extension: CM (complete main)
Codec ID: A_AC3
Duration: 1h 30mn
Bit rate mode: Constant
Bit rate: 448 Kbps
Channel(s): 6 channels
Channel positions: Front: L C R, Side: L R, LFE
Sampling rate: 48.0 KHz
Bit depth: 16 bits
Compression mode: Lossy
Stream size: 289 MiB (13%)

Audio #2
ID: 3
Format: AC-3
Format/Info: Audio Coding 3
Mode extension: CM (complete main)
Codec ID: A_AC3
Duration: 1h 30mn
Bit rate mode: Constant
Bit rate: 448 Kbps
Channel(s): 6 channels
Channel positions: Front: L C R, Side: L R, LFE
Sampling rate: 48.0 KHz
Bit depth: 16 bits
Compression mode: Lossy
Stream size: 289 MiB (13%)

Text
ID: 4
Format: UTF-8
Codec ID: S_TEXT/UTF8
Codec ID/Info: UTF-8 Plain Text









Поделиться:




реклама партнёра


Вернуться к началу
 Профиль Отправить личное сообщение  
 
   Похожие торренты   Автор   Торрент   Размер 
В этой теме нет новых непрочитанных сообщений. Мисс Конгениальность / Miss Congeniality [Боевик, комедия, криминал, 2000] BDRemux 1080p, Dub+Avo+Sub

salma3

10 | 3

19.81 ГБ

В этой теме нет новых непрочитанных сообщений. Мисс Конгениальность / Miss Congeniality [Боевик, комедия, криминал, 2000] BDRip 720p, Dub+Avo+Sub

salma3

3 | 6

6.94 ГБ

В этой теме нет новых непрочитанных сообщений. Мисс Бабуля / Su-sang-han geu-nyeo / Miss Granny (Дон Хёк Хван) [2014, Комедия, HDRip] dvo

Dracon

662 | 19

1.38 ГБ

В этой теме нет новых непрочитанных сообщений. Мисс Конгениальность 2: Прекрасна и опасна / Miss Congeniality 2: Armed and Fabulous [Комедия, боевик, криминал, 2005] BDRip 720p, Dub+Dvo+Sub

salma3

15 | 4

4.39 ГБ

В этой теме нет новых непрочитанных сообщений. Мисс Конгениальность 2: Прекрасна и опасна / Miss Congeniality 2: Armed and Fabulous [Боевик, комедия, криминал, 2005] BDRemux 1080p, Dub+Dvo+Sub

salma3

14 | 3

17.73 ГБ

В этой теме нет новых непрочитанных сообщений. Леди-детектив мисс Фрайни Фишер / Miss Fisher's Murder Mysteries [S01-02] [драма, криминал, детектив, 2012-2013] DVDRip, HDRip, Mvo

salma3

151 | 102

15.92 ГБ

В этой теме нет новых непрочитанных сообщений. Мисс Март / Miss March [комедия, 2009] BDRemux, Dvo+Sub

salma3

4 | 2

27.93 ГБ


Начать новую тему Ответить на тему  [ 1 сообщение ] 




Для Мосгорсуда, Роскомнадзора и рекламодателей:: mosgorsud-torrent[собачка]yandex.ru