Торрент файл
скачать торрент магнет ссылка Добавлен: 15 янв 2012, 21:09
Размер: 1.85 ГБ
Сидеров: 2
Личеров: 5
Автор

СообщениеДобавлено: 15 янв 2012, 21:09 

Не в сети
Супермодератор
Аватара пользователя
Дата регистрации:
11 апр 2010, 18:10
Спасибо: 5960 / 7
Сообщения: 56765
Звезда Болливуда (Последний герой Болливуда) (3 серии из 3) / Bollywood Hero

Перевод: Профессиональный (многоголосый, закадровый), cубтитры: отсутствуют
Формат: SATRip, AVI, XviD, MP3
Страна: США
Режиссер: Билл Беннетт
Жанр: комедия

Продолжительность:
1 серия: 00:52:28
2 серия: 00:51:45
3 серия: 00:51:01

Год выпуска: 2009

В ролях: Крис Кэттэн, Али Фазал, Неха Дхупия, Пуджа Кумар, Кип Кинг, Джулиан Сэндс, Майя Рудольф

Описание: Дали под зад ногой в Голливуде? Да кому нужен этот Голливуд, когда есть… Болливуд! 1000 фильмов в год, миллионы поклонников, самые красивые женщины. Надо только уметь петь и танцевать. «Последний герой Болливуда» — это невероятные приключения американца в Индии, сериал, где все звезды играют самих себя.



Видео (серия 1):704x528 (1.3:1), 25,000 fps, XVID MPEG-4 ~1500 kbps avg, 0.125 bit/pixel
Видео (серия 2):704x528 (1.3:1), 25,000 fps, XVID MPEG-4 ~1503 kbps avg, 0.162 bit/pixel
Видео (серия 3):704x528 (1.3:1), 25,000 fps, XVID MPEG-4 ~1649 kbps avg, 0.177 bit/pixel

Аудио: 48.0 KHz, MPEG Audio Layer 3, ~128 Kbps

Общее
Полное имя: D:\Downloads\Мои раздачи на tfile.ru\zvezda_bollywooda_[tfile.ru]\zvezda_bollywooda_[tfile.ru]_cd1.avi
Формат: AVI
Формат/Информация: Audio Video Interleave
Размер файла: 633 Мбайт
Продолжительность: 52 м.
Общий поток: 1686 Кбит/сек
Библиотека кодирования: VirtualDub build 30586/release

Видео
Идентификатор: 0
Формат: MPEG-4 Visual
Параметр BVOP формата: Нет
Параметр QPel формата: Нет
Параметр GMC формата: Без точки перехода
Параметр матрицы формата: Выборочная
Идентификатор кодека: XVID
Идентификатор кодека/Подсказка: XviD
Продолжительность: 52 м.
Битрейт: 1549 Кбит/сек
Ширина: 704 пикс.
Высота: 528 пикс.
Соотношение сторон: 4:3
Частота кадров: 25,000 кадр/сек
Цветовое пространство: YUV
Подвыборка цветности: 4:2:0
Битовая глубина: 8 бит
Тип развёртки: Прогрессивная
Метод сжатия: С потерями
Бит/(Пиксели*Кадры): 0.167
Размер потока: 581 Мбайт (92%)
Библиотека кодирования: XviD 1.2.0.dev47 (UTC 2006-11-01)

Аудио
Идентификатор: 1
Формат: MPEG Audio
Версия формата: Version 1
Профиль формата: Layer 3
Режим: Joint stereo
Расширение режима: MS Stereo
Идентификатор кодека: 55
Идентификатор кодека/Подсказка: MP3
Продолжительность: 52 м.
Вид битрейта: Постоянный
Битрейт: 128 Кбит/сек
Канал(ы): 2 канала(ов)
Частота: 48,0 КГц
Метод сжатия: С потерями
Размер потока: 48,0 Мбайт (8%)
Выравнивание: Разделение по промежуткам
Продолжительность промежутка: 40мс. (1,00 видеокадр)
Время предзагрузки промежутка: 500 ms

Общее
Полное имя: D:\Downloads\Мои раздачи на tfile.ru\zvezda_bollywooda_[tfile.ru]\zvezda_bollywooda_[tfile.ru]_cd2.avi
Формат: AVI
Формат/Информация: Audio Video Interleave
Размер файла: 607 Мбайт
Продолжительность: 51 м.
Общий поток: 1640 Кбит/сек
Библиотека кодирования: VirtualDub build 30586/release

Видео
Идентификатор: 0
Формат: MPEG-4 Visual
Параметр BVOP формата: Нет
Параметр QPel формата: Нет
Параметр GMC формата: Без точки перехода
Параметр матрицы формата: Выборочная
Идентификатор кодека: XVID
Идентификатор кодека/Подсказка: XviD
Продолжительность: 51 м.
Битрейт: 1503 Кбит/сек
Ширина: 704 пикс.
Высота: 528 пикс.
Соотношение сторон: 4:3
Частота кадров: 25,000 кадр/сек
Цветовое пространство: YUV
Подвыборка цветности: 4:2:0
Битовая глубина: 8 бит
Тип развёртки: Прогрессивная
Метод сжатия: С потерями
Бит/(Пиксели*Кадры): 0.162
Размер потока: 556 Мбайт (92%)
Библиотека кодирования: XviD 1.2.0.dev47 (UTC 2006-11-01)

Аудио
Идентификатор: 1
Формат: MPEG Audio
Версия формата: Version 1
Профиль формата: Layer 3
Режим: Joint stereo
Расширение режима: MS Stereo
Идентификатор кодека: 55
Идентификатор кодека/Подсказка: MP3
Продолжительность: 51 м.
Вид битрейта: Постоянный
Битрейт: 128 Кбит/сек
Канал(ы): 2 канала(ов)
Частота: 48,0 КГц
Метод сжатия: С потерями
Размер потока: 47,4 Мбайт (8%)
Выравнивание: Разделение по промежуткам
Продолжительность промежутка: 40мс. (1,00 видеокадр)
Время предзагрузки промежутка: 500 ms

Общее
Полное имя: D:\Downloads\Мои раздачи на tfile.ru\zvezda_bollywooda_[tfile.ru]\zvezda_bollywooda_[tfile.ru]_cd3.avi
Формат: AVI
Формат/Информация: Audio Video Interleave
Размер файла: 652 Мбайт
Продолжительность: 51 м.
Общий поток: 1787 Кбит/сек
Библиотека кодирования: VirtualDub build 30586/release

Видео
Идентификатор: 0
Формат: MPEG-4 Visual
Параметр BVOP формата: Нет
Параметр QPel формата: Нет
Параметр GMC формата: Без точки перехода
Параметр матрицы формата: Выборочная
Идентификатор кодека: XVID
Идентификатор кодека/Подсказка: XviD
Продолжительность: 51 м.
Битрейт: 1649 Кбит/сек
Ширина: 704 пикс.
Высота: 528 пикс.
Соотношение сторон: 4:3
Частота кадров: 25,000 кадр/сек
Цветовое пространство: YUV
Подвыборка цветности: 4:2:0
Битовая глубина: 8 бит
Тип развёртки: Прогрессивная
Метод сжатия: С потерями
Бит/(Пиксели*Кадры): 0.177
Размер потока: 602 Мбайт (92%)
Библиотека кодирования: XviD 1.2.0.dev47 (UTC 2006-11-01)

Аудио
Идентификатор: 1
Формат: MPEG Audio
Версия формата: Version 1
Профиль формата: Layer 3
Режим: Joint stereo
Расширение режима: MS Stereo
Идентификатор кодека: 55
Идентификатор кодека/Подсказка: MP3
Продолжительность: 51 м.
Вид битрейта: Постоянный
Битрейт: 128 Кбит/сек
Канал(ы): 2 канала(ов)
Частота: 48,0 КГц
Метод сжатия: С потерями
Размер потока: 46,7 Мбайт (7%)
Выравнивание: Разделение по промежуткам
Продолжительность промежутка: 40мс. (1,00 видеокадр)
Время предзагрузки промежутка: 500 ms










Поделиться:




реклама партнёра


Вернуться к началу
 Профиль Отправить личное сообщение  
 
   Похожие торренты   Автор   Торрент   Размер 
В этой теме нет новых непрочитанных сообщений. Моя невеста из Болливуда / My Bollywood Bride [Драма, мелодрама, комедия, 2006] DVDRip, Dvo

salma3

33 | 7

1.37 ГБ

В этой теме нет новых непрочитанных сообщений. Герой / The Hero [драма, комедия, 2017] HDRip, Mvo

salma3

91 | 21

1.46 ГБ

В этой теме нет новых непрочитанных сообщений. Герой / The Hero [драма, комедия, 2017] HDRip, Mvo

salma3

76 | 4

1.36 ГБ

В этой теме нет новых непрочитанных сообщений. Герой / Hero [драма, мелодрама, комедия, 1992] WEB-DL 1080p, Dvo

salma3

72 | 19

4.96 ГБ

В этой теме нет новых непрочитанных сообщений. Герой / The Hero [драма, комедия, 2017] BDRip 720p, Mvo

salma3

62 | 34

2.85 ГБ

В этой теме нет новых непрочитанных сообщений. Герой ее романа / Paperback Hero [мелодрама, комедия, 1999] DVDRip, Dvo

salma3

98 | 18

1.36 ГБ

В этой теме нет новых непрочитанных сообщений. Мой отец – герой / My Father the Hero [мелодрама, комедия, 1994] BDRip 1080p, Mvo+Avo+Sub

salma3

0 | 0

8 ГБ


Начать новую тему Ответить на тему  [ 1 сообщение ] 




Для Мосгорсуда, Роскомнадзора и рекламодателей:: mosgorsud-torrent[собачка]yandex.ru