Торрент файл
скачать торрент магнет ссылка Добавлен: 15 янв 2012, 21:08
Размер: 2.05 ГБ
Сидеров: 20
Личеров: 6
Автор

СообщениеДобавлено: 15 янв 2012, 21:08 

Не в сети
Супермодератор
Аватара пользователя
Дата регистрации:
11 апр 2010, 18:10
Спасибо: 5799 / 7
Сообщения: 56779
[b]Мой парень из зоопарка / Zookeeper[/b]

Перевод: Профессиональный (полное дублирование)[лицензия], cубтитры: отсутствуют

Формат: DVDRip, AVI, XviD, AC3

Страна: США

Режиссер: Фрэнк Корачи

Жанр: мелодрама, комедия, семейный

Продолжительность: 01:37:38

Год выпуска: 2011

В ролях: Кевин Джеймс, Розарио Доусон, Лесли Бибб, Кен Жонг, Донни Уолберг, Джо Роган, Нат Факсон, Стеффиана Де Ла Круз, Ник Бакай, Джеки Сэндлер

Описание: Звери пытаются научить незадачливого смотрителя зоопарка методам обольщения противоположного пола для того, чтобы тот, наконец, завоевал сердце любимой девушки.

[/field]

Видео: 720x304 (2.37:1), 25 fps, XviD build 50 ~2101 kbps avg, 0.38 bit/pixel

Аудио #1: Русский: 48 kHz, AC3 Dolby Digital, 3/2 (L,C,R,l,r) + LFE ch, ~448 kbps [Профессиональный (полное дублирование)]
Аудио #2:Украинский: 48 kHz, AC3 Dolby Digital, 3/2 (L,C,R,l,r) + LFE ch, ~448 kbps [Профессиональный (полное дублирование)]

Бюджет $80 000 000
Сборы в США $77 185 732
Сборы в мире + $66 000 000 = $143 185 732
Сборы в России $4 967 773
General
Complete name: C:\Новая папка\Мой парень из зоопарка.avi
Format: AVI
Format/Info: Audio Video Interleave
Format profile: OpenDML
File size: 2.05 GiB
Duration: 1h 37mn
Overall bit rate: 3 005 Kbps
Writing application: VirtualDubMod 1.5.10.2 (build 2540/release)
Writing library: VirtualDubMod build 2540/release

Video
ID: 0
Format: MPEG-4 Visual
Format profile: Advanced Simple@L5
Format settings, BVOP: 1
Format settings, QPel: No
Format settings, GMC: No warppoints
Format settings, Matrix: Default (H.263)
Codec ID: XVID
Codec ID/Hint: XviD
Duration: 1h 37mn
Bit rate: 2 090 Kbps
Width: 720 pixels
Height: 304 pixels
Display aspect ratio: 2.35:1
Frame rate: 25.000 fps
Color space: YUV
Chroma subsampling: 4:2:0
Bit depth: 8 bits
Scan type: Progressive
Compression mode: Lossy
Bits/(Pixel*Frame): 0.382
Stream size: 1.43 GiB (70%)
Writing library: XviD 1.2.1 (UTC 2008-12-04)

Audio #1
ID: 1
Format: AC-3
Format/Info: Audio Coding 3
Mode extension: CM (complete main)
Codec ID: 2000
Duration: 1h 37mn
Bit rate mode: Constant
Bit rate: 448 Kbps
Channel(s): 6 channels
Channel positions: Front: L C R, Side: L R, LFE
Sampling rate: 48.0 KHz
Bit depth: 16 bits
Compression mode: Lossy
Stream size: 313 MiB (15%)
Alignment: Split accross interleaves
Interleave, duration: 40 ms (1.00 video frame)
Interleave, preload duration: 500 ms

Audio #2
ID: 2
Format: AC-3
Format/Info: Audio Coding 3
Mode extension: CM (complete main)
Codec ID: 2000
Duration: 1h 37mn
Bit rate mode: Constant
Bit rate: 448 Kbps
Channel(s): 6 channels
Channel positions: Front: L C R, Side: L R, LFE
Sampling rate: 48.0 KHz
Bit depth: 16 bits
Compression mode: Lossy
Stream size: 313 MiB (15%)
Alignment: Split accross interleaves
Interleave, duration: 40 ms (1.00 video frame)
Interleave, preload duration: 500 ms

















Поделиться:




реклама партнёра


Вернуться к началу
 Профиль Отправить личное сообщение  
 
   Похожие торренты   Автор   Торрент   Размер 
В этой теме нет новых непрочитанных сообщений. Нелепая шестёрка / The Ridiculous 6 (Фрэнк Корачи) [комедия, вестерн, 2015] WEB-DLRip [NewStudio]

Dracon

282 | 14

1.73 ГБ

В этой теме нет новых непрочитанных сообщений. Нелепая шестёрка / The Ridiculous 6 (Фрэнк Корачи) [комедия, вестерн, 2015] WEB-DL 1080p [NewStudio]

Dracon

58 | 15

5.3 ГБ

В этой теме нет новых непрочитанных сообщений. Нелепая шестёрка / The Ridiculous 6 (Фрэнк Корачи) [комедия, вестерн, 2015] WEB-DL 720p [NewStudio]

Dracon

1300 | 125

3.64 ГБ

В этой теме нет новых непрочитанных сообщений. Что за парень? / What a Man (Маттиас Швайгхефер / Matthias Schweighöfer) [2011г., мелодрама, комедия, HDRip] MVO

Alfredovich

6 | 3

1.36 ГБ

В этой теме нет новых непрочитанных сообщений. Парень-каратист 4 / Еще один малыш-каратист / The Next Karate Kid [Комедия, приключения, боевик, семейный, 1994] BDRip 720p, Mvo+Sub

salma3

21 | 5

7 ГБ

В этой теме нет новых непрочитанных сообщений. Мой парень – псих / Silver Linings Playbook [драма, мелодрама, комедия, 2012] BDRip-AVC, Mvo+Sub [лицензия]

salma3

90 | 5

1.46 ГБ

В этой теме нет новых непрочитанных сообщений. Парень с того света / My Boyfriend's Back [комедия, фэнтези, ужасы, мелодрама, 1993] HDRip, Dvo

salma3

120 | 16

1.46 ГБ


Начать новую тему Ответить на тему  [ 1 сообщение ] 




Для Мосгорсуда, Роскомнадзора и рекламодателей:: mosgorsud-torrent[собачка]yandex.ru