Торрент файл
скачать торрент магнет ссылка Добавлен: 15 янв 2012, 21:07
Размер: 2.1 ГБ
Сидеров: 17
Личеров: 3
Автор

СообщениеДобавлено: 15 янв 2012, 21:07 

Не в сети
Супермодератор
Аватара пользователя
Дата регистрации:
11 апр 2010, 18:10
Спасибо: 5801 / 7
Сообщения: 56779
Прости, хочу на тебе жениться / Scusa ma ti voglio sposare



Перевод: Профессиональный (дублированый),субтитры: отсутствуют
Формат: HDRip-AVC, MKV, H.264, AC3
Страна: Италия
Жанр: комедия, мелодрама, драма
Продолжительность: 01:49:00
Режиссер: Федерико Моччиа/Federico Moccia
Год выпуска: 2010

В ролях: Рауль Бова, Микела Кваттрочокке, Франческо Аполлони, Лука Анджелетти, Чечилия Дацци, Игнацио Олива, Франческа Ферраццо, Франческа Антонелли ,Мишела Карпенте, Беатрис Валенте

Описание:Алекс и Ники, несмотря на разницу в возрасте, решили пожениться. Но чем ближе день свадьбы, тем чаще у Ники возникают сомнения по поводу этого события. Да и женатые друзья Алекса не хотят, чтобы он «повесил себе на шею камень», как сделали они сами. Ведь семейная жизнь — штука сложная, и похожа на пазлы, которые нужно обдуманно складывать. Смогут ли Алекс и Ники решиться на такой поступок?

____

Видео: 1280 x 544 (2:35:1), 24,000 fps, AVC (х264), High@L4.0, ~2378 Kbps, 0.142 bit/pixel
Аудио: 48 kHz, AC3 Dolby Digital, 3/2 (L,C,R,l,r) + LFE ch, ~384 kbps


Автор РИПа:ddimmon22
Общее
Уникальный идентификатор: 214037021760270974391642386553522198192 (0xA10607EBC92EA88A844DE5DE37A996B0)
Полное имя: K:\РИПЫ\scusa_ma_ti_voglio_sposare.mkv
Формат: Matroska
Версия формата: Version 2
Размер файла: 2,10 Гбайт
Продолжительность: 1 ч. 49 м.
Общий поток: 2759 Кбит/сек
Дата кодирования: UTC 2011-09-10 11:08:21
Программа кодирования: mkvmerge v4.9.1 ('Ich will') сборка от Aug 10 2011 09:31:20
Библиотека кодирования: libebml v1.2.1 + libmatroska v1.2.0

Видео
Идентификатор: 1
Формат: AVC
Формат/Информация: Advanced Video Codec
Профиль формата: High@L4.0
Параметр CABAC формата: Да
Параметр ReFrames формата: 8 кадров
Идентификатор кодека: V_MPEG4/ISO/AVC
Продолжительность: 1 ч. 49 м.
Битрейт: 2378 Кбит/сек
Ширина: 1280 пикс.
Высота: 544 пикс.
Соотношение сторон: 2,35:1
Частота кадров: 24,000 кадр/сек
Цветовое пространство: YUV
Подвыборка цветности: 4:2:0
Битовая глубина: 8 бит
Тип развёртки: Прогрессивная
Бит/(Пиксели*Кадры): 0.142
Размер потока: 1,77 Гбайт (84%)
Библиотека кодирования: x264 core 116 r2074 2641b9e
Настройки программы: cabac=1 / ref=8 / deblock=1:-1:-1 / analyse=0x3:0x133 / me=umh / subme=7 / psy=1 / psy_rd=1.00:0.10 / mixed_ref=1 / me_range=16 / chroma_me=1 / trellis=2 / 8x8dct=1 / cqm=0 / deadzone=21,11 / fast_pskip=0 / chroma_qp_offset=-3 / threads=6 / sliced_threads=0 / nr=0 / decimate=1 / interlaced=0 / bluray_compat=0 / constrained_intra=0 / bframes=3 / b_pyramid=2 / b_adapt=2 / b_bias=0 / direct=3 / weightb=1 / open_gop=0 / weightp=2 / keyint=250 / keyint_min=23 / scenecut=40 / intra_refresh=0 / rc_lookahead=50 / rc=2pass / mbtree=1 / bitrate=2378 / ratetol=1.0 / qcomp=0.60 / qpmin=0 / qpmax=69 / qpstep=4 / cplxblur=20.0 / qblur=0.5 / ip_ratio=1.40 / aq=1:1.00

Аудио
Идентификатор: 2
Формат: AC-3
Формат/Информация: Audio Coding 3
Расширение режима: CM (complete main)
Идентификатор кодека: A_AC3
Продолжительность: 1 ч. 49 м.
Вид битрейта: Постоянный
Битрейт: 384 Кбит/сек
Каналы: 6 каналов
Расположение каналов: Front: L C R, Side: L R, LFE
Частота: 48,0 КГц
Битовая глубина: 16 бит
Метод сжатия: С потерями
Размер потока: 300 Мбайт (14%)








Поделиться:




реклама партнёра


Вернуться к началу
 Профиль Отправить личное сообщение  
 
   Похожие торренты   Автор   Торрент   Размер 
В этой теме нет новых непрочитанных сообщений. Прости, хочу на тебе жениться / Scusa ma ti voglio sposare [комедия, мелодрама, 2010] HDRip, Dub [Лицензия]

salma3

92 | 13

1.37 ГБ

В этой теме нет новых непрочитанных сообщений. Уже скучаю по тебе / Miss You Already [Драма, мелодрама, комедия, 2015] HDRip, dvo

Dracon

2784 | 214

1.45 ГБ

В этой теме нет новых непрочитанных сообщений. Филейн говорит прости / Phileine zegt sorry [Комедия, мелодрама, 2003] HDRip, Dvo

salma3

36 | 4

1.47 ГБ

В этой теме нет новых непрочитанных сообщений. Дело в тебе / A Case of You [мелодрама, комедия, 2013] HDRip, mvo

Dracon

15 | 2

1.38 ГБ

В этой теме нет новых непрочитанных сообщений. Дело в тебе / A Case of You [мелодрама, комедия, 2013] HDRip, Mvo [Лицензия]

Dracon

21 | 3

1.36 ГБ

В этой теме нет новых непрочитанных сообщений. Обещать - не значит жениться / He's Just Not That Into You [Драма, мелодрама, комедия, 2009] BDRip 720p, Dub [лицензия]

salma3

31 | 3

2.19 ГБ

В этой теме нет новых непрочитанных сообщений. Уже скучаю по тебе / Miss You Already [Драма, мелодрама, комедия, 2015] BDRip 720p, dvo

Dracon

995 | 90

4.52 ГБ


Начать новую тему Ответить на тему  [ 1 сообщение ] 




Для Мосгорсуда, Роскомнадзора и рекламодателей:: mosgorsud-torrent[собачка]yandex.ru