Торрент файл
скачать торрент магнет ссылка Добавлен: 15 янв 2012, 21:05
Размер: 1.45 ГБ
Сидеров: 33
Личеров: 4
Автор

СообщениеДобавлено: 15 янв 2012, 21:05 

Не в сети
Супермодератор
Аватара пользователя
Дата регистрации:
11 апр 2010, 18:10
Спасибо: 5799 / 7
Сообщения: 56779
Поменяться местами / Trading Places


Перевод: Профессиональный (многоголосый, закадровый), cубтитры: отсутствуют
Формат: HDRip-AVC, MKV, H.264, AC3
Страна: США
Режиссер: Джон Лэндис
Жанр: комедия
Продолжительность: 01:56:21
Год выпуска: 1983

В ролях: Дэн Эйкройд, Эдди Мерфи, Ральф Беллами, Дон Амиче, Денхолм Эллиотт, Джэми Ли Кертис, Пол Глисон, Альфред Дрэйк, Фрэнк Оз, Джеймс Белуши, Аль Фрэнкен, Том Дэвис, Морис Вудс, Ричард Д. Фишер мл., Джим Галлахер, Джеймс Ньюэлл

Описание: Жизнь респектабельного бизнесмена Луиса Уинтропа Третьего, управляющего богатейшей компании с Уолл-Стрит, круто меняется после того, как его боссы, братья Дьюк, заключают необычное пари. Один из братьев посчитал, что управлять компанией может кто угодно,даже самый отъявленный и необразованный проходимец.
Поставив на кон доллар, братья находят для своего эксперимента уличного мошенника Билли Рэя Валентайна, которому и предлагают возглавить компанию вместо Уинтропа. Эксцентрическая парочка Дьюков и не подозревает, что, поменяв местами проходимца и крупного бизнесмена, они рискуют гораздо больше, чем могли бы себе представить.




Видео: 896 x 504 (1:78:1), 23.976 fps, AVC (х264) High@L4.1, ~ 1403 Kbps, 0.130 bit/pixel
Аудио: 48 kHz, AC3 Dolby Digital, 3/2 (L,C,R,l,r) + LFE ch, ~384 kbps


Рип: jeenart

General
Unique ID: 234271196369083522676845681342801433798 (0xB03EFDC08F0D2424A74572F5F02AD4C6)
Complete name: F:\Мои релизы\Все релизы 10\pomenajtsja_mestami_[tfile.ru].mkv
Format: Matroska
File size: 1.45 GiB
Duration: 1h 56mn
Overall bit rate: 1 789 Kbps
Encoded date: UTC 2011-09-14 08:48:26
Writing application: mkvmerge v4.6.0 ('Still Crazy After All These Years') сборка от Apr1 2011 21:01:49
Writing library: libebml v1.2.0 + libmatroska v1.1.0

Video
ID: 1
Format: AVC
Format/Info: Advanced Video Codec
Format profile: High@L4.1
Format settings, CABAC: Yes
Format settings, ReFrames: 4 frames
Codec ID: V_MPEG4/ISO/AVC
Duration: 1h 56mn
Bit rate: 1 403 Kbps
Width: 896 pixels
Height: 504 pixels
Display aspect ratio: 16:9
Frame rate: 23.976 fps
Color space: YUV
Chroma subsampling: 4:2:0
Bit depth: 8 bits
Scan type: Progressive
Bits/(Pixel*Frame): 0.130
Stream size: 1.11 GiB (77%)
Writing library: x264 core 115 r1937 aa21558
Encoding settings: cabac=1 / ref=3 / deblock=1:-1:-1 / analyse=0x3:0x113 / me=hex / subme=7 / psy=1 / psy_rd=1.00:0.10 / mixed_ref=1 / me_range=16 / chroma_me=1 / trellis=1 / 8x8dct=1 / cqm=0 / deadzone=21,11 / fast_pskip=1 / chroma_qp_offset=-3 / threads=6 / sliced_threads=0 / nr=0 / decimate=1 / interlaced=0 / bluray_compat=0 / constrained_intra=0 / bframes=3 / b_pyramid=2 / b_adapt=1 / b_bias=0 / direct=1 / weightb=1 / open_gop=0 / weightp=2 / keyint=250 / keyint_min=23 / scenecut=40 / intra_refresh=0 / rc_lookahead=40 / rc=2pass / mbtree=1 / bitrate=1403 / ratetol=1.0 / qcomp=0.60 / qpmin=0 / qpmax=69 / qpstep=4 / cplxblur=20.0 / qblur=0.5 / ip_ratio=1.40 / aq=1:1.00

Audio
ID: 2
Format: AC-3
Format/Info: Audio Coding 3
Mode extension: CM (complete main)
Codec ID: A_AC3
Duration: 1h 56mn
Bit rate mode: Constant
Bit rate: 384 Kbps
Channel(s): 6 channels
Channel positions: Front: L C R, Side: L R, LFE
Sampling rate: 48.0 KHz
Bit depth: 16 bits
Compression mode: Lossy
Stream size: 320 MiB (21%)























Поделиться:




реклама партнёра


Вернуться к началу
 Профиль Отправить личное сообщение  
 
   Похожие торренты   Автор   Торрент   Размер 
В этой теме нет новых непрочитанных сообщений. Поменяться местами / Trading Places [Комедия, 1983] BDRip 720p, Mvo

salma3

120 | 7

3.07 ГБ

В этой теме нет новых непрочитанных сообщений. Поездка в Америку / Coming to America (Джон Лэндис) [Комедия, Мелодрама, 1988] BDRip 720p, Mvo+Dvo+Avo+Sub

Dracon

10 | 3

9.05 ГБ

В этой теме нет новых непрочитанных сообщений. Places Burn - Places Burn (EP) [Июль 2011, Metalcore, Groove Metal, MP3]

PriZraK

0 | 1

34 МБ

В этой теме нет новых непрочитанных сообщений. Они поменялись местами / Model Behavior [комедия, 2000] DVBRip, Mvo

salma3

64 | 4

1.46 ГБ

В этой теме нет новых непрочитанных сообщений. Класс / Class [драма, мелодрама, комедия, 1983] HDRip, Dvo

salma3

34 | 4

1.46 ГБ

В этой теме нет новых непрочитанных сообщений. Частная школа / Private School [мелодрама, комедия, 1983] HDRip, Dvo

salma3

81 | 4

1.45 ГБ

В этой теме нет новых непрочитанных сообщений. Люди, места, вещи / People Places Things [Комедия, 2015] WEB-DLRip, Mvo [iTunes]

Dracon

61 | 3

1.37 ГБ


Начать новую тему Ответить на тему  [ 1 сообщение ] 




Для Мосгорсуда, Роскомнадзора и рекламодателей:: mosgorsud-torrent[собачка]yandex.ru