Торрент файл
скачать торрент магнет ссылка Добавлен: 15 янв 2012, 21:05
Размер: 2.19 ГБ
Сидеров: 5
Личеров: 4
Автор

СообщениеДобавлено: 15 янв 2012, 21:05 

Не в сети
Супермодератор
Аватара пользователя
Дата регистрации:
11 апр 2010, 18:10
Спасибо: 5801 / 7
Сообщения: 56779
Очень страшное кино / Scary Movie

Перевод: Профессиональный (полное дублирование), Авторский (Павел Санаев; Евгений Гранкин)
Субтитры: русские, английские

Формат: НDRip-AVC, MKV, H.264, AAC
Страна: США
Режиссер: Кинен Айвори Уайанс
Жанр: комедия
Продолжительность: 01:28:17
Год выпуска: 2000
В ролях: Анна Фэрис, Шоун Уайанс, Марлон Уайанс, Джон Абрахамс, Шеннон Элизабет, Шери Отери, Локлин Манро, Реджина Холл, Дейв Шеридан, Кармен Электра
Описание: В каждом уважающем себя фильме ужасов есть телефон, который вот-вот зазвонит; жертва, которая вот-вот завопит; убийца, который вот-вот нанесет смертельный удар. И единственный способ остаться в живых — это твердо помнить, что надо всегда опережать убийцу на один шаг…
Когда сексуальная репортерша, вечно сующая свой нос, на пару с попадающим во всякие дурацкие истории охранником из супермаркета пытается остановить убийцу, задумавшего расправиться с самыми видными учениками средней школы Булемия-Фоллз, начинается такое… ну очень страшное кино.



Видео: 1280 x 544 (2.35:1), 23.976 fps, AVC (х264) High@L4.0, ~2660 kbps avg

Аудио #1:Русский: 48 kHz,AAC LC, 3/2 (L,C,R,l,r) + LFE ch, ~270 kbps avg [Профессиональный (полное дублирование)]
Аудио #2:Русский: 48.0 KHz, MP3, 2 ch, ~192 kbps avg [Авторский одноголосый - Павел Санаев]
Аудио #3:Русский: 48.0 KHz, MP3, 2 ch, 1~92 kbps avg [Авторский одноголосый - Евгений Гранкин]
Аудио #4:Английский: 48 kHz, AAC, 3/2 (L,C,R,l,r) + LFE ch, ~270 kbps avg [Оригинал]


General
Unique ID: 200217730543232141104486815588429246444 (0x96A0884285A7CD09913309A8EA32AFEC)
Format: Matroska
File size: 58.4 MiB
Duration: 2mn 7s
Overall bit rate: 3 849 Kbps
Encoded date: UTC 2011-09-15 18:51:03
Writing application: mkvmerge v4.6.0 ('Still Crazy After All These Years') сборка от Mar 10 2011 02:50:32
Writing library: libebml v1.2.0 + libmatroska v1.1.0
Cover: Yes

Video
ID: 1
Format: AVC
Format/Info: Advanced Video Codec
Format profile: High@L4.0
Format settings, CABAC: Yes
Format settings, ReFrames: 9 frames
Muxing mode: Header stripping
Codec ID: V_MPEG4/ISO/AVC
Duration: 2mn 7s
Width: 1 280 pixels
Height: 544 pixels
Display aspect ratio: 2.35:1
Frame rate: 23.976 fps
Color space: YUV
Chroma subsampling: 4:2:0
Bit depth: 8 bits
Scan type: Progressive
Title: 1280x544 (2.35); 2660 Kbps; 23,976 fps; 0,153 bpp
Language: English
Matrix coefficients: BT.709-5, BT.1361, IEC 61966-2-4 709, SMPTE RP177

Audio #1
ID: 2
Format: AAC
Format/Info: Advanced Audio Codec
Format profile: LC
Codec ID: A_AAC
Duration: 2mn 7s
Channel(s): 6 channels
Channel positions: Front: L C R, Side: L R, LFE
Sampling rate: 48.0 KHz
Compression mode: Lossy
Delay relative to video: 2ms
Title: AAC LC; 270 Kbps; VBR; q=0.33; 6 ch; 48 Khz; Dub
Language: Russian

Audio #2
ID: 3
Format: MPEG Audio
Format version: Version 1
Format profile: Layer 3
Mode: Joint stereo
Muxing mode: Header stripping
Codec ID: A_MPEG/L3
Codec ID/Hint: MP3
Duration: 2mn 7s
Bit rate mode: Constant
Bit rate: 192 Kbps
Channel(s): 2 channels
Sampling rate: 48.0 KHz
Compression mode: Lossy
Delay relative to video: 2ms
Stream size: 2.91 MiB (5%)
Title: MPEG-1 Audio layer 3; 192 Kbps; CBR; 2 ch; 48 Khz; Павел Санаев
Language: Russian

Audio #3
ID: 4
Format: MPEG Audio
Format version: Version 1
Format profile: Layer 3
Mode: Joint stereo
Muxing mode: Header stripping
Codec ID: A_MPEG/L3
Codec ID/Hint: MP3
Duration: 2mn 7s
Bit rate mode: Constant
Bit rate: 192 Kbps
Channel(s): 2 channels
Sampling rate: 48.0 KHz
Compression mode: Lossy
Delay relative to video: 2ms
Stream size: 2.91 MiB (5%)
Title: MPEG-1 Audio layer 3; 192 Kbps; CBR; 2 ch; 48 Khz; Евгений Гранкин
Language: Russian

Audio #4
ID: 5
Format: AAC
Format/Info: Advanced Audio Codec
Format profile: LC
Codec ID: A_AAC
Duration: 2mn 7s
Channel(s): 6 channels
Channel positions: Front: L C R, Side: L R, LFE
Sampling rate: 48.0 KHz
Compression mode: Lossy
Delay relative to video: 2ms
Title: AAC LC; 244 Kbps; VBR; q=0.33; 6 ch; 48 Khz; Original
Language: English

Text #1
ID: 6
Format: UTF-8
Codec ID: S_TEXT/UTF8
Codec ID/Info: UTF-8 Plain Text
Language: Russian

Text #2
ID: 7
Format: UTF-8
Codec ID: S_TEXT/UTF8
Codec ID/Info: UTF-8 Plain Text
Language: English







Поделиться:




реклама партнёра


Вернуться к началу
 Профиль Отправить личное сообщение  
 
   Похожие торренты   Автор   Торрент   Размер 
В этой теме нет новых непрочитанных сообщений. Очень испанское кино / Spanish Movie [комедия, пародия, 2009] DVDRip-AVC, Mvo

salma3

24 | 4

1.45 ГБ

В этой теме нет новых непрочитанных сообщений. Очень паранормальное кино / Paranormal Whacktivity [Ужасы, комедия, 2013] HDRip, Dub [Лицензия]

Dracon

184 | 11

1.46 ГБ

В этой теме нет новых непрочитанных сообщений. Очень паранормальное кино / Paranormal Whacktivity [Ужасы, комедия, 2013] BDRip 720p, Dub [Лицензия]

Dracon

58 | 4

4.61 ГБ

В этой теме нет новых непрочитанных сообщений. Недетское кино / Not Another Teen Movie [комедия, 2001] DVDRip, Avo

salma3

39 | 2

1.46 ГБ

В этой теме нет новых непрочитанных сообщений. Пляжное кино / Beach Movie [комедия, 1998] DVDRip, Dvo [НТВ+]

salma3

13 | 1

1.22 ГБ

В этой теме нет новых непрочитанных сообщений. Супергеройское кино / Superhero Movie [Комедия, Пародия, 2008] BDRip 1080p, Dub+Mvo

salma3

38 | 5

8.04 ГБ

В этой теме нет новых непрочитанных сообщений. Снупи и мелочь пузатая в кино / The Peanuts Movie [мультфильм, комедия, приключения, семейный, 2015] BDRip 720p, Avo+Sub

salma3

140 | 35

3.29 ГБ


Начать новую тему Ответить на тему  [ 1 сообщение ] 




Для Мосгорсуда, Роскомнадзора и рекламодателей:: mosgorsud-torrent[собачка]yandex.ru