Торрент файл
скачать торрент магнет ссылка Добавлен: 15 янв 2012, 21:03
Размер: 743.58 МБ
Сидеров: 60
Личеров: 8
Автор

СообщениеДобавлено: 15 янв 2012, 21:03 

Не в сети
Супермодератор
Аватара пользователя
Дата регистрации:
11 апр 2010, 18:10
Спасибо: 5798 / 7
Сообщения: 56779
Агент Джонни Инглиш / Johnny English

Перевод: Профессиональный (полное дублирование), cубтитры: отсутствуют
Формат: LowHDRip, AVI, XviD, MP3
Страна: Франция, Великобритания
Режиссер: Питер Хауит
Жанр: боевик, комедия, приключения
Продолжительность: 01:27:25
Год выпуска: 2003
В ролях: Роуэн Эткинсон, Таша Де Васконцелос, Бен Миллер, Грег Уайз, Дуглас МакФерран, Стив Николсон, Теренс Харви, Кевин МакНалли, Тим Пиготт-Смит, Нина Янг
Описание: История самого некомпетентного и недалекого Британского дипломата, которого только можно представить, которого ошибочно принимают за самого знаменитого и опасного шпиона Великобритании, Джонни Инглиша. Из-за этой путаницы герой оказывается вовлеченным в смертельную схватку с авторами очередного дьявольского плана.



Видео: 656x368 (1.78:1), 23.976 fps, XviD build 50 ~1052 kbps avg, 0.18 bit/pixel
Аудио: 48 kHz, MPEG Layer 3, 2 ch, ~128.00 kbps avg

General
Complete name: D:\Видео\Фильмы\johnny_english_[tfile.ru].avi
Format: AVI
Format/Info: Audio Video Interleave
File size: 744 MiB
Duration: 1h 27mn
Overall bit rate: 1 190 Kbps
Director: Last Boy Scout
Writing application: VirtualDubMod 1.5.10.2 (build 2540/release)
Copyright: rutracker.org
Comment: HDTVRip Dub

Video
ID: 0
Format: MPEG-4 Visual
Format profile: Advanced Simple@L5
Format settings, BVOP: 1
Format settings, QPel: No
Format settings, GMC: No warppoints
Format settings, Matrix: Custom
Codec ID: DX50
Codec ID/Hint: DivX 5
Duration: 1h 27mn
Bit rate: 1 052 Kbps
Width: 656 pixels
Height: 368 pixels
Display aspect ratio: 16:9
Frame rate: 23.976 fps
Color space: YUV
Chroma subsampling: 4:2:0
Bit depth: 8 bits
Scan type: Progressive
Compression mode: Lossy
Bits/(Pixel*Frame): 0.182
Stream size: 658 MiB (88%)
Writing library: XviD 1.2.1 (UTC 2008-12-04)

Audio
ID: 1
Format: MPEG Audio
Format version: Version 1
Format profile: Layer 3
Codec ID: 55
Codec ID/Hint: MP3
Duration: 1h 27mn
Bit rate mode: Constant
Bit rate: 128 Kbps
Channel(s): 2 channels
Sampling rate: 48.0 KHz
Compression mode: Lossy
Stream size: 80.0 MiB (11%)
Alignment: Aligned on interleaves
Interleave, duration: 42 ms (1.00 video frame)
Interleave, preload duration: 504 ms
Writing library: LAME3.98r
Encoding settings: -m s -V 4 -q 2 -lowpass 17 -b 128







Поделиться:




реклама партнёра


Вернуться к началу
 Профиль Отправить личное сообщение  
 
   Похожие торренты   Автор   Торрент   Размер 
В этой теме нет новых непрочитанных сообщений. Агент Картер / Agent Carter (Сезон 1-2, Серия 1-18 из 18) (Луис Д'Эспозито, Питер Лето) [2015-2016 , Фантастика, боевик, приключения, криминал, драма , WEB-DLRip-AVC 1080p] [MVO] [LostFilm , Nevafilm , English] + [Subs Rus,ENG]

Враг Нароода

0 | 0

32.66 ГБ

В этой теме нет новых непрочитанных сообщений. Беги, Джонни / Bhaag Johnny [Боевик, триллер, 2015] DVDRip, Mvo [SDI Media]

salma3

39 | 8

1.37 ГБ

В этой теме нет новых непрочитанных сообщений. Агент Коди Бэнкс / Agent Cody Banks [Комедия, боевик, приключения, 2003] BDRemux 1080p, Dub

salma3

27 | 26

18.49 ГБ

В этой теме нет новых непрочитанных сообщений. Агент Коди Бэнкс / Agent Cody Banks [Комедия, боевик, приключения, фантастика, 2003] DVD9, Dub+Dvo+Sub

salma3

5 | 6

7.86 ГБ

В этой теме нет новых непрочитанных сообщений. Агент Коди Бэнкс / Agent Cody Banks [Комедия, боевик, приключения, 2003] BDRip 720p, Dub

salma3

37 | 30

4.84 ГБ

В этой теме нет новых непрочитанных сообщений. Джонни, будь хорошим / Johnny Be Good [Комедия, 1988] HDTVRip, Dvo

salma3

18 | 4

1.45 ГБ

В этой теме нет новых непрочитанных сообщений. Джонни-Зубочистка / Johnny Stecchino [комедия, 1991] BDRip 720p, Mvo

salma3

52 | 4

6.94 ГБ


Начать новую тему Ответить на тему  [ 1 сообщение ] 




Для Мосгорсуда, Роскомнадзора и рекламодателей:: mosgorsud-torrent[собачка]yandex.ru