Торрент файл
скачать торрент магнет ссылка Добавлен: 15 янв 2012, 21:01
Размер: 745.83 МБ
Сидеров: 8
Личеров: 3
Автор

СообщениеДобавлено: 15 янв 2012, 21:01 

Не в сети
Супермодератор
Аватара пользователя
Дата регистрации:
11 апр 2010, 18:10
Спасибо: 5801 / 7
Сообщения: 56779
Артур. Идеальный миллионер / Arthur

Перевод: Профессиональный (многоголосый, закадровый) (Лицензия), cубтитры: отсутствуют
Формат: LowHDRip, AVI, XviD, MP3
Страна: США
Режиссер: Джейсон Уайнер
Жанр: Комедия
Продолжительность: 01:49:58
Год выпуска: 2011
В ролях: Расселл Брэнд, Хелен Миррен, Грета Гервиг, Дженнифер Гарнер, Джеральдин Джеймс, Луис Гузман, Ник Нолти, Кристина Калф, Мерфи Гайер, Хосе Рамон Росарио
Описание: Артур Бэч, попадая в жизненные передряги, всегда полагался на две вещи: свое огромное состояние и здравомыслие собственной няньки Хобсон. Но теперь ему придется сделать выбор между браком по расчету, который еще более укрепит его финансовое положение, и неопределенным будущим с единственным, что нельзя купить за деньги, — прекрасной Наоми, любовью всей его жизни. Учитывая воодушевленность Наоми и нестандартную помощь Хобсон, Артур бросается в омут с головой в наиболее рискованное приключение всей своей жизни и наконец узнаёт, что значит быть настоящим мужчиной.

[/field]
Сэмпл

Видео: 656x368 (1.78:1), 23.976 fps, XviD build 50 ~810 kbps avg, 0.14 bit/pixel
Аудио: 48 kHz, MPEG Layer 3, 2 ch, ~128.00 kbps avg

General
Complete name: D:\Видео\Кино\arthur_[tfile.ru].avi
Format: AVI
Format/Info: Audio Video Interleave
File size: 746 MiB
Duration: 1h 49mn
Overall bit rate: 948 Kbps
Writing application: VirtualDubMod 1.5.10.3 | www.virtualdub-fr.org || (build 2550/release)
Writing library: VirtualDubMod build 2550/release

Video
ID: 0
Format: MPEG-4 Visual
Format profile: Advanced Simple@L5
Format settings, BVOP: 1
Format settings, QPel: No
Format settings, GMC: No warppoints
Format settings, Matrix: Custom
Codec ID: XVID
Codec ID/Hint: XviD
Duration: 1h 49mn
Bit rate: 811 Kbps
Width: 656 pixels
Height: 368 pixels
Display aspect ratio: 16:9
Frame rate: 23.976 fps
Color space: YUV
Chroma subsampling: 4:2:0
Bit depth: 8 bits
Scan type: Progressive
Compression mode: Lossy
Bits/(Pixel*Frame): 0.140
Stream size: 638 MiB (86%)
Writing library: XviD 1.2.1 (UTC 2008-12-04)

Audio
ID: 1
Format: MPEG Audio
Format version: Version 1
Format profile: Layer 3
Codec ID: 55
Codec ID/Hint: MP3
Duration: 1h 49mn
Bit rate mode: Constant
Bit rate: 128 Kbps
Channel(s): 2 channels
Sampling rate: 48.0 KHz
Compression mode: Lossy
Stream size: 101 MiB (14%)
Alignment: Aligned on interleaves
Interleave, duration: 42 ms (1.00 video frame)
Interleave, preload duration: 504 ms
Writing library: LAME3.98r
Encoding settings: -m s -V 4 -q 2 -lowpass 17 -b 128







Поделиться:




реклама партнёра


Вернуться к началу
 Профиль Отправить личное сообщение  
 
   Похожие торренты   Автор   Торрент   Размер 
В этой теме нет новых непрочитанных сообщений. Жизнь в деталях / Life in Pieces [01х01-16 из 18] (Джейсон Уайнер) [Комедия, 2015] HDTVRip [OZZ]

Dracon

2 | 0

5.97 ГБ

В этой теме нет новых непрочитанных сообщений. Жизнь в деталях / Life in Pieces [01х01-12 из 13] (Джейсон Уайнер) [Комедия, 2015] HDTV 720p, Mvo [IdeaFilm]

Dracon

3 | 0

9.76 ГБ

В этой теме нет новых непрочитанных сообщений. Жизнь в деталях / Life in Pieces [01х01-15 из 22] (Джейсон Уайнер, Джереми Гарелик) [2015, Комедия, WEB-DL 1080p | BaibaKo]

Dracon

1 | 0

13.23 ГБ

В этой теме нет новых непрочитанных сообщений. Американская семейка / Modern Family [07х01-16] (Джейсон Уайнер, Майкл Спиллер, Крис Кох) [2015, Комедия, WEB-DLRip | LostFilm]

Dracon

33 | 37

5.04 ГБ

В этой теме нет новых непрочитанных сообщений. Артур Ньюман, профессионал гольфа / Arthur Newman [Драма, комедия, 2012] HDTVRip, Mvo

salma3

66 | 9

1.37 ГБ

В этой теме нет новых непрочитанных сообщений. Американская семейка / Modern Family [07x01-06 из 24] (Майкл Спиллер, Джейсон Уайнер, Гэйл Манкусо) [2015, Комедия, WEB-DL 720p | LostFilm]

Dracon

56 | 82

4.32 ГБ

В этой теме нет новых непрочитанных сообщений. Американская семейка / Modern Family [07x01-06 из 24] (Джейсон Уайнер, Майкл Спиллер, Крис Кох) [2015, Комедия, HDTV 720p | Gears Media]

Dracon

27 | 103

3.98 ГБ


Начать новую тему Ответить на тему  [ 1 сообщение ] 




Для Мосгорсуда, Роскомнадзора и рекламодателей:: mosgorsud-torrent[собачка]yandex.ru