Торрент файл
скачать торрент магнет ссылка Добавлен: 15 янв 2012, 21:00
Размер: 1.45 ГБ
Сидеров: 12
Личеров: 3
Автор

СообщениеДобавлено: 15 янв 2012, 21:00 

Не в сети
Супермодератор
Аватара пользователя
Дата регистрации:
11 апр 2010, 18:10
Спасибо: 5801 / 7
Сообщения: 56779
Артур. Идеальный миллионер / Arthur

Перевод: Профессиональный (многоголосый)
Субтитры:отсутствуют
Формат: HDRip-AVC, MKV, H.264, AC3

Страна: США
Режиссер: Джейсон Уайнер
Жанр: комедия

Продолжительность: 01:49:58
Год выпуска: 2011

В ролях: Расселл Брэнд, Хелен Миррен, Грета Гервиг, Дженнифер Гарнер, Джеральдин Джеймс, Луис Гузман, Ник Нолти, Кристина Калф, Мерфи Гайер, Хосе Рамон Росарио

Описание: Артур Бэч, попадая в жизненные передряги, всегда полагался на две вещи: свое огромное состояние и здравомыслие собственной няньки Хобсон. Но теперь ему придется сделать выбор между браком по расчету, который еще более укрепит его финансовое положение, и неопределенным будущим с единственным, что нельзя купить за деньги, — прекрасной Наоми, любовью всей его жизни. Учитывая воодушевленность Наоми и нестандартную помощь Хобсон, Артур бросается в омут с головой в наиболее рискованное приключение всей своей жизни и наконец узнаёт, что значит быть настоящим мужчиной.





[/field]

Видео: 720x400 (16:9), 23.976 fps, AVC (x264) High@L4.1~1622 kbps avg, 0.23 bit/pixel
Аудио: 48 kHz, AC3 Dolby Digital, 2 ch, ~192 kbps

Рип от:TswetkOFF
Релиз-Группа:



General
Unique ID: 184202627431496789769039111236550607133 (0x8A9422B6B716A7449F2829089FD7411D)
Complete name: D:\Films\artur_[tfile.ru].mkv
Format: Matroska
File size: 1.45 GiB
Duration: 1h 55mn
Overall bit rate: 1 799 Kbps
Encoded date: UTC 2011-09-22 00:48:06
Writing application: mkvmerge v4.6.0 ('Still Crazy After All These Years') сборка от Apr1 2011 21:01:49
Writing library: libebml v1.2.0 + libmatroska v1.1.0

Video
ID: 1
Format: AVC
Format/Info: Advanced Video Codec
Format profile: High@L4.1
Format settings, CABAC: Yes
Format settings, ReFrames: 4 frames
Format settings, GOP: M=4, N=32
Codec ID: V_MPEG4/ISO/AVC
Duration: 1h 55mn
Bit rate: 1 622 Kbps
Width: 720 pixels
Height: 400 pixels
Display aspect ratio: 16:9
Frame rate: 25.000 fps
Color space: YUV
Chroma subsampling: 4:2:0
Bit depth: 8 bits
Scan type: Progressive
Bits/(Pixel*Frame): 0.225
Stream size: 1.27 GiB (87%)
Writing library: x264 core 115 r1937 aa21558
Encoding settings: cabac=1 / ref=3 / deblock=1:-1:-1 / analyse=0x3:0x113 / me=hex / subme=7 / psy=1 / psy_rd=1.00:0.20 / mixed_ref=1 / me_range=16 / chroma_me=1 / trellis=1 / 8x8dct=1 / cqm=0 / deadzone=21,11 / fast_pskip=1 / chroma_qp_offset=-3 / threads=3 / sliced_threads=0 / nr=0 / decimate=0 / interlaced=0 / bluray_compat=0 / constrained_intra=0 / bframes=3 / b_pyramid=2 / b_adapt=1 / b_bias=0 / direct=1 / weightb=1 / open_gop=0 / weightp=2 / keyint=250 / keyint_min=25 / scenecut=40 / intra_refresh=0 / rc_lookahead=40 / rc=2pass / mbtree=1 / bitrate=1622 / ratetol=1.0 / qcomp=0.60 / qpmin=0 / qpmax=69 / qpstep=4 / cplxblur=20.0 / qblur=0.5 / ip_ratio=1.40 / aq=1:1.00

Audio
ID: 2
Format: AC-3
Format/Info: Audio Coding 3
Mode extension: CM (complete main)
Codec ID: A_AC3
Duration: 1h 55mn
Bit rate mode: Constant
Bit rate: 192 Kbps
Channel(s): 2 channels
Channel positions: Front: L R
Sampling rate: 48.0 KHz
Bit depth: 16 bits
Compression mode: Lossy
Stream size: 159 MiB (11%)














Поделиться:




реклама партнёра


Вернуться к началу
 Профиль Отправить личное сообщение  
 
   Похожие торренты   Автор   Торрент   Размер 
В этой теме нет новых непрочитанных сообщений. Жизнь в деталях / Life in Pieces [01х01-16 из 18] (Джейсон Уайнер) [Комедия, 2015] HDTVRip [OZZ]

Dracon

2 | 0

5.97 ГБ

В этой теме нет новых непрочитанных сообщений. Жизнь в деталях / Life in Pieces [01х01-12 из 13] (Джейсон Уайнер) [Комедия, 2015] HDTV 720p, Mvo [IdeaFilm]

Dracon

3 | 0

9.76 ГБ

В этой теме нет новых непрочитанных сообщений. Жизнь в деталях / Life in Pieces [01х01-15 из 22] (Джейсон Уайнер, Джереми Гарелик) [2015, Комедия, WEB-DL 1080p | BaibaKo]

Dracon

1 | 0

13.23 ГБ

В этой теме нет новых непрочитанных сообщений. Американская семейка / Modern Family [07х01-16] (Джейсон Уайнер, Майкл Спиллер, Крис Кох) [2015, Комедия, WEB-DLRip | LostFilm]

Dracon

33 | 37

5.04 ГБ

В этой теме нет новых непрочитанных сообщений. Артур Ньюман, профессионал гольфа / Arthur Newman [Драма, комедия, 2012] HDTVRip, Mvo

salma3

66 | 9

1.37 ГБ

В этой теме нет новых непрочитанных сообщений. Американская семейка / Modern Family [07x01-06 из 24] (Майкл Спиллер, Джейсон Уайнер, Гэйл Манкусо) [2015, Комедия, WEB-DL 720p | LostFilm]

Dracon

56 | 82

4.32 ГБ

В этой теме нет новых непрочитанных сообщений. Американская семейка / Modern Family [07x01-07 из 24] (Джейсон Уайнер, Майкл Спиллер, Крис Кох) [2015, Комедия, HDTV 720p | Gears Media]

Dracon

17 | 41

4.62 ГБ


Начать новую тему Ответить на тему  [ 1 сообщение ] 




Для Мосгорсуда, Роскомнадзора и рекламодателей:: mosgorsud-torrent[собачка]yandex.ru