Торрент файл
скачать торрент магнет ссылка Добавлен: 15 янв 2012, 20:55
Размер: 2.16 ГБ
Сидеров: 22
Личеров: 7
Автор

СообщениеДобавлено: 15 янв 2012, 20:55 

Не в сети
Супермодератор
Аватара пользователя
Дата регистрации:
11 апр 2010, 18:10
Спасибо: 5960 / 7
Сообщения: 56765
Робин Гуд: Мужчины в трико / Robin Hood: Men in Tights

Перевод: Профессиональный (многоголосый, закадровый)(Видеосервис), cубтитры: Русские, Английские (полные, отключаемые)
Формат: HDRip, MKV, H.264, AC3
Страна: США, Франция
Режиссер: Мел Брукс
Жанр: комедия
Продолжительность: 01:44:22
Год выпуска: 1993
В ролях: Кэри Элвис, Ричард Льюис, Роджер Рис, Эми Ясбек, Марк Блэнкфилд, Дэйв Шаппелл, Айзек Хейз, Меган Кэвэна, Эрик Аллан Крамер, Мэттью Порретта
Описание: Робин и его компания в трико, срывая с себя регалии вместе со штанами, должны свергнуть злобного принца Джона и найти ключ к сердцу прекрасной девы Мэриан… а так же к поясу верности…

Видео: 1280x692 (1,85:1), 23,976 fps, AVC (х264), High@L4.1 ~2800 kbps avg, 0.132
Аудио: 48 kHz, AC-3, 2 ch, ~192.00 kbps avg


Автор РИПа:
Общее
Уникальный идентификатор : 252089883746884358007658520527991512119 (0xBDA6BEDE3BE956AF9CFCB9CE0FB89C37)
Полное имя : f:\Downloads\robin_hood_men_in_tights_[tfile.ru].mkv
Формат : Matroska
Размер файла : 2,16 Гбайт
Продолжительность : 1 ч. 44 м.
Общий поток : 2963 Кбит/сек
Дата кодирования : UTC 2011-10-12 01:48:29
Программа кодирования : mkvmerge v4.6.0 ('Still Crazy After All These Years') сборка от Mar 10 2011 02:50:32
Библиотека кодирования : libebml v1.2.0 + libmatroska v1.1.0

Видео
Идентификатор : 1
Формат : AVC
Формат/Информация : Advanced Video Codec
Профиль формата : High@L4.1
Параметр CABAC формата : Да
Параметр ReFrames формата : 3 кадра
Режим смешивания : Header stripping
Идентификатор кодека : V_MPEG4/ISO/AVC
Продолжительность : 1 ч. 44 м.
Битрейт : 2800 Кбит/сек
Ширина : 1280 пикс.
Высота : 692 пикс.
Соотношение сторон : 1,850
Режим частоты кадров : Переменный
Частота кадров : 23,976 кадр/сек
Цветовое пространство : YUV
Подвыборка цветности : 4:2:0
Битовая глубина : 8 бит
Тип развёртки : Прогрессивная
Бит/(Пиксели*Кадры) : 0.132
Размер потока : 1,98 Гбайт (92%)
Библиотека кодирования : x264 core 116 r2019M 9cc407d
Настройки программы : cabac=1 / ref=3 / deblock=1:-1:-1 / analyse=0x3:0x133 / me=hex / subme=7 / psy=1 / psy_rd=1.00:0.15 / mixed_ref=1 / me_range=16 / chroma_me=1 / trellis=1 / 8x8dct=1 / cqm=0 / deadzone=21,11 / fast_pskip=1 / chroma_qp_offset=-3 / threads=8 / sliced_threads=0 / nr=0 / decimate=1 / interlaced=0 / bluray_compat=0 / constrained_intra=0 / bframes=3 / b_pyramid=1 / b_adapt=2 / b_bias=0 / direct=3 / weightb=1 / open_gop=0 / weightp=2 / keyint=230 / keyint_min=23 / scenecut=40 / intra_refresh=0 / rc_lookahead=40 / rc=abr / mbtree=1 / bitrate=2800 / ratetol=1.0 / qcomp=0.60 / qpmin=10 / qpmax=51 / qpstep=4 / ip_ratio=1.40 / aq=1:1.00
Язык : English

Аудио
Идентификатор : 2
Формат : AC-3
Формат/Информация : Audio Coding 3
Расширение режима : CM (complete main)
Режим смешивания : Header stripping
Идентификатор кодека : A_AC3
Продолжительность : 1 ч. 44 м.
Вид битрейта : Постоянный
Битрейт : 192 Кбит/сек
Каналы : 2 канала
Расположение каналов : Front: L R
Частота : 48,0 КГц
Битовая глубина : 16 бит
Метод сжатия : С потерями
Размер потока : 143 Мбайт (6%)
Заголовок : MVO (Видеосервис с издания Карусели)
Язык : Russian

Текст #1
Идентификатор : 3
Формат : UTF-8
Идентификатор кодека : S_TEXT/UTF8
Идентификатор кодека/Информация : UTF-8 Plain Text
Язык : Russian

Текст #2
Идентификатор : 4
Формат : UTF-8
Идентификатор кодека : S_TEXT/UTF8
Идентификатор кодека/Информация : UTF-8 Plain Text
Язык : English

Меню
00:00:00.000 : en:Main Titles
00:03:25.622 : en:Sherwood Forest Rap
00:04:31.730 : en:Le Dungeon
00:10:22.580 : en:The Journey Home
00:12:40.051 : en:Ahchoo
00:15:14.080 : en:It's Good to Be Home
00:19:42.473 : en:The Sheriff of Rottingham
00:23:13.350 : en:Marian
00:26:17.868 : en:Bad News
00:28:48.018 : en:Latrine
00:32:04.840 : en:Little John
00:36:41.616 : en:Will Scarlet O'Hara
00:39:11.849 : en:The Prince's Party
00:43:22.558 : en:The Party Gets Rough
00:47:21.380 : en:From Royalty to Recycling
00:49:20.291 : en:Noble Words
00:51:43.100 : en:Basic Training
00:53:39.091 : en:The Secret Weapon
00:55:49.763 : en:Rabbi Tuckman
00:58:46.857 : enon Giovanni's Plan
01:03:23.174 : en:Warning Robin
01:06:37.327 : en:Men in Tights
01:10:01.030 : en:The Night Is Young and You're So Beautiful
01:14:09.028 : en:The Archery Contest
01:18:27.995 : en:One More Shot
01:20:42.254 : en:Under Arrest
01:23:21.538 : en:The Wedding
01:26:21.927 : en:Revolution
01:29:13.223 : en:The Fight Scene
01:32:27.208 : en:The Magic Pill
01:34:44.804 : en:King Richard's Return
01:39:28.004 : en:End Titles














Поделиться:




реклама партнёра


Вернуться к началу
 Профиль Отправить личное сообщение  
 
   Похожие торренты   Автор   Торрент   Размер 
В этой теме нет новых непрочитанных сообщений. Робин Гуд / Robin Hood [Боевик, драма, приключения, 2010] BDRemux 1080p, Dub [Directors Cut]

salma3

57 | 53

38.64 ГБ

В этой теме нет новых непрочитанных сообщений. Робин и 7 гангстеров / Robin and the 7 Hoods [мюзикл, комедия, криминал, 1964] BDRip, Mvo

salma3

31 | 11

2.18 ГБ

В этой теме нет новых непрочитанных сообщений. Робин и 7 гангстеров / Robin and the 7 Hoods [мюзикл, комедия, криминал, 1964] BDRemux 1080p, Mvo

salma3

24 | 59

19.79 ГБ

В этой теме нет новых непрочитанных сообщений. Отчаянный папа / Father Hood [Комедия, 1993] BDRip 720p, Mvo+Avo+Sub

salma3

111 | 30

4.75 ГБ

В этой теме нет новых непрочитанных сообщений. Во всем виноват енот / Wаkеfіеld (Робин Суикорд / Robin Swicord) [2016г., триллер, драма, DVDRір] DUB

Alfredovich

405 | 23

1.46 ГБ

В этой теме нет новых непрочитанных сообщений. Мужчины, женщины и дети / Men, Women & Children (Джейсон Рейтмен) [драма, комедия, 2014] HDRip, Dub [iTunes]

Dracon

2 | 3

1.46 ГБ

В этой теме нет новых непрочитанных сообщений. Мужчины, женщины и дети / Men, Women & Children (Джейсон Рейтмен) [драма, комедия, 2014] HDRip [Gears Media]

Dracon

5 | 3

1.37 ГБ


Начать новую тему Ответить на тему  [ 1 сообщение ] 




Для Мосгорсуда, Роскомнадзора и рекламодателей:: mosgorsud-torrent[собачка]yandex.ru