Торрент файл
скачать торрент магнет ссылка Добавлен: 15 янв 2012, 20:53
Размер: 2.1 ГБ
Сидеров: 59
Личеров: 6
Автор

СообщениеДобавлено: 15 янв 2012, 20:53 

Не в сети
Супермодератор
Аватара пользователя
Дата регистрации:
11 апр 2010, 18:10
Спасибо: 5799 / 7
Сообщения: 56779
По ту сторону кровати / De l'autre cote du lit



Перевод: Профессиональный (полное дублирование).субтитры: отсутствуют
Формат: HDRip-AVC, MKV, H.264, AC3
Страна: Франция
Жанр: комедия
Продолжительность: 01:32:00
Режиссер: Паскал Пузаду / Pascale Pouzadoux
Год выпуска: 2008

В ролях: Софи Марсо, Дэни Бун, Антуан Дюлери, Ролан Жиро, Анни Дюпре, Жюльет Арно, Нинон Могер, Клемо Кутюр, Франсуа Винчентелли, Дэльфин Ривьер

Описание:«Это невозможно, что ты делаешь целыми днями?! Я не могу все делать за тебя!» — примерно так ругаются некоторые супруги, после нескольких лет прожитых вместе. Ариадна и Хьюго вместе уже 10 лет и их семейная жизнь давно превратилась в рутину и взаимные упреки, но однажды их терпению приходит конец. Они решают поменяться местами.

Теперь муж будет вести все домашнее хозяйство и смотреть за детьми, а жена делать карьеру и ездить на деловые встречи. Тут-то и возникает множество забавных и комичных ситуаций, которые станут настоящей проверкой для них. Так ли беззаботна жизнь на другой стороне постели?…


____

Видео: 1280 x 544 (2:35:1),23,976 кадр/сек, AVC (х264), High@L3.1, ~2852 Kbps, 0.171 bit/pixel
Аудио: 48 kHz, AC3 Dolby Digital, 3/2 (L,C,R,l,r) + LFE ch, ~384 kbps


Автор РИПа:ddimmon22
Общее
Уникальный идентификатор: 175582277522287322959741980616475393929 (0x8417EAA6312554838F8E670E6719BF89)
Полное имя: I:\oktzbr rupu\de_l'autre_cote_du_lit_[tfile.ru].mkv
Формат: Matroska
Версия формата: Version 2
Размер файла: 2,10 Гбайт
Продолжительность: 1 ч. 32 м.
Общий поток: 3236 Кбит/сек
Дата кодирования: UTC 2011-10-16 08:09:47
Программа кодирования: mkvmerge v4.9.1 ('Ich will') сборка от Aug 10 2011 09:31:20
Библиотека кодирования: libebml v1.2.1 + libmatroska v1.2.0

Видео
Идентификатор: 1
Формат: AVC
Формат/Информация: Advanced Video Codec
Профиль формата: High@L3.1
Параметр CABAC формата: Да
Параметр ReFrames формата: 4 кадра
Идентификатор кодека: V_MPEG4/ISO/AVC
Продолжительность: 1 ч. 32 м.
Битрейт: 2852 Кбит/сек
Ширина: 1280 пикс.
Высота: 544 пикс.
Соотношение сторон: 2,35:1
Частота кадров: 23,976 кадр/сек
Цветовое пространство: YUV
Подвыборка цветности: 4:2:0
Битовая глубина: 8 бит
Тип развёртки: Прогрессивная
Бит/(Пиксели*Кадры): 0.171
Размер потока: 1,81 Гбайт (86%)
Библиотека кодирования: x264 core 116 r2074 2641b9e
Настройки программы: cabac=1 / ref=3 / deblock=1:0:0 / analyse=0x3:0x113 / me=hex / subme=7 / psy=1 / psy_rd=1.00:0.00 / mixed_ref=1 / me_range=16 / chroma_me=1 / trellis=1 / 8x8dct=1 / cqm=0 / deadzone=21,11 / fast_pskip=1 / chroma_qp_offset=-2 / threads=6 / sliced_threads=0 / nr=0 / decimate=1 / interlaced=0 / bluray_compat=0 / constrained_intra=0 / bframes=3 / b_pyramid=2 / b_adapt=1 / b_bias=0 / direct=1 / weightb=1 / open_gop=0 / weightp=2 / keyint=250 / keyint_min=23 / scenecut=40 / intra_refresh=0 / rc_lookahead=40 / rc=2pass / mbtree=1 / bitrate=2852 / ratetol=1.0 / qcomp=0.60 / qpmin=0 / qpmax=69 / qpstep=4 / cplxblur=20.0 / qblur=0.5 / ip_ratio=1.40 / aq=1:1.00

Аудио
Идентификатор: 2
Формат: AC-3
Формат/Информация: Audio Coding 3
Расширение режима: CM (complete main)
Идентификатор кодека: A_AC3
Продолжительность: 1 ч. 32 м.
Вид битрейта: Постоянный
Битрейт: 384 Кбит/сек
Каналы: 6 каналов
Расположение каналов: Front: L C R, Side: L R, LFE
Частота: 48,0 КГц
Битовая глубина: 16 бит
Метод сжатия: С потерями
Размер потока: 255 Мбайт (12%)















Поделиться:




реклама партнёра


Вернуться к началу
 Профиль Отправить личное сообщение  
 
   Похожие торренты   Автор   Торрент   Размер 
В этой теме нет новых непрочитанных сообщений. Другая жизнь Ришара Кемпа / L'autre vie de Richard Kemp [Фантастика, триллер, криминал, 2013] HDRip, avo

Ανδρέας

2062 | 104

1.36 ГБ

В этой теме нет новых непрочитанных сообщений. По ту сторону зеркала / The Other Side of the Mirror [драма, триллер, фентези, 2016] HDRip, Mvo

salma3

57 | 7

1.46 ГБ

В этой теме нет новых непрочитанных сообщений. Чпокаются на кровати [2014 г., Amateur, CamRip]

Dievas

3 | 3

18.61 МБ

В этой теме нет новых непрочитанных сообщений. По ту сторону закона / Dead Heat [Боевик, комедия, драма, криминал, 2002] DVDRip-AVC, Dvo

salma3

15 | 6

1.99 ГБ

В этой теме нет новых непрочитанных сообщений. Моя девушка мастурбирует на кровати [2014 г., Amateur, CamRip]

Dievas

20 | 2

378.57 МБ

В этой теме нет новых непрочитанных сообщений. На кровати в попу [2014 г., Amateur, Anal, CamRip 384p]

friizze

18 | 4

61.1 МБ

В этой теме нет новых непрочитанных сообщений. Домашний секс пары на кровати [2013 г., Amateur, CamRip 480p]

friizze

5 | 0

111.72 МБ


Начать новую тему Ответить на тему  [ 1 сообщение ] 




Для Мосгорсуда, Роскомнадзора и рекламодателей:: mosgorsud-torrent[собачка]yandex.ru