Торрент файл
скачать торрент магнет ссылка Добавлен: 15 янв 2012, 20:49
Размер: 2.1 ГБ
Сидеров: 4
Личеров: 3
Автор

СообщениеДобавлено: 15 янв 2012, 20:49 

Не в сети
Супермодератор
Аватара пользователя
Дата регистрации:
11 апр 2010, 18:10
Спасибо: 5801 / 7
Сообщения: 56779
Мартовские коты/ Tomcats



Перевод: Профессиональный (полное дублирование),субтитры: отсутствуют
Формат: HDRip-AVC, MKV, H.264, AC3
Страна: США
Жанр: комедия
Продолжительность: 01:34:00
Режиссер: Грегори Пуарье / Gregory Poirier
Год выпуска: 2001

В ролях: Джерри О’Коннелл, Шеннон Элизабет, Джейк Бьюзи, Орасио Санс, Джейми Прессли, Берни Кейси, Дэвид Огден Стайерз, Трэвис Файн, Хэзер Стивенс, Джулия Шульц

Описание:Мартовские коты — это компания старшеклассников, заключивших пакт; каждый делает ежемесячные взносы, а весь куш получит последний оставшийся холостяком. По происшествии нескольких лет холостяков осталось двое. И одному нужны деньги, чтобы расплатиться с мафией, а второй ненавидит женщин.

Первый готов поделиться кушем с девицей, которая разведет второго на брачный контракт, но сам поддается ее чарам. Самое интересное — это не отношение героев, а юмор.


________

Видео: 1152 x 624 (1:84:6),23.976 кадр/сек, AVC (х264), High@L4.0, ~2 952 Kbps, 0.171bit/pixel
Аудио: 48 kHz, AC3 Dolby Digital, 2/0 (L,R)ch, ~224 kbps


Автор РИПа:ddimmon22
Общее
Уникальный идентификатор: 229801019747436073392692414311289328100 (0xACE2110756BA948B842246167E8C11E4)
Полное имя: K:\oktzbrmesz\martovskie_koti_[tfile.ru].mkv
Формат: Matroska
Версия формата: Version 2
Размер файла: 2,10 Гбайт
Продолжительность: 1 ч. 34 м.
Общий поток: 3175 Кбит/сек
Дата кодирования: UTC 2011-10-25 10:01:23
Программа кодирования: mkvmerge v4.9.1 ('Ich will') сборка от Aug 10 2011 09:31:20
Библиотека кодирования: libebml v1.2.1 + libmatroska v1.2.0

Видео
Идентификатор: 1
Формат: AVC
Формат/Информация: Advanced Video Codec
Профиль формата: High@L4.0
Параметр CABAC формата: Да
Параметр ReFrames формата: 8 кадров
Идентификатор кодека: V_MPEG4/ISO/AVC
Продолжительность: 1 ч. 34 м.
Битрейт: 2952 Кбит/сек
Ширина: 1152 пикселя
Высота: 624 пикселя
Соотношение сторон: 16:9
Частота кадров: 23,976 кадра/сек
Цветовое пространство: YUV
Субдискретизация насыщенности: 4:2:0
Битовая глубина: 8 бит
Тип развёртки: Прогрессивная
Бит/(Пиксели*Кадры): 0.171
Размер потока: 1,91 Гбайт (91%)
Библиотека кодирования: x264 core 116 r2074 2641b9e
Настройки программы: cabac=1 / ref=8 / deblock=1:-1:-1 / analyse=0x3:0x133 / me=umh / subme=7 / psy=1 / psy_rd=1.00:0.10 / mixed_ref=1 / me_range=16 / chroma_me=1 / trellis=2 / 8x8dct=1 / cqm=0 / deadzone=21,11 / fast_pskip=0 / chroma_qp_offset=-3 / threads=6 / sliced_threads=0 / nr=0 / decimate=1 / interlaced=0 / bluray_compat=0 / constrained_intra=0 / bframes=3 / b_pyramid=2 / b_adapt=2 / b_bias=0 / direct=3 / weightb=1 / open_gop=0 / weightp=2 / keyint=250 / keyint_min=23 / scenecut=40 / intra_refresh=0 / rc_lookahead=50 / rc=2pass / mbtree=1 / bitrate=2952 / ratetol=1.0 / qcomp=0.60 / qpmin=0 / qpmax=69 / qpstep=4 / cplxblur=20.0 / qblur=0.5 / ip_ratio=1.40 / aq=1:1.00

Аудио
Идентификатор: 2
Формат: AC-3
Формат/Информация: Audio Coding 3
Расширение режима: CM (complete main)
Идентификатор кодека: A_AC3
Продолжительность: 1 ч. 34 м.
Вид битрейта: Постоянный
Битрейт: 224 Кбит/сек
Каналы: 2 канала
Расположение каналов: Front: L R
Частота: 48,0 КГц
Битовая глубина: 16 бит
Метод сжатия: С потерями
Размер потока: 152 Мбайт (7%)















Поделиться:




реклама партнёра


Вернуться к началу
 Профиль Отправить личное сообщение  
 
   Похожие торренты   Автор   Торрент   Размер 
В этой теме нет новых непрочитанных сообщений. Уличные коты / Alleycats [боевик, триллер, 2016] HDRip, Mvo

salma3

222 | 14

1.46 ГБ

В этой теме нет новых непрочитанных сообщений. Супер Майк XXL / Magic Mike XXL (Грегори Джейкобс) [комедия, музыка, драма, 2015] HDRip, Dub [iTunes]

Dracon

75 | 3

2.05 ГБ

В этой теме нет новых непрочитанных сообщений. Супер Майк XXL / Magic Mike XXL (Грегори Джейкобс) [комедия, музыка, драма, 2015] HDRip, Dub [iTunes]

Dracon

354 | 20

1.46 ГБ

В этой теме нет новых непрочитанных сообщений. Супер Майк XXL / Magic Mike XXL (Грегори Джейкобс) [комедия, музыка, драма, 2015] BDRip-AVC, Dub+Sub [BD CEE]

Dracon

631 | 54

2.18 ГБ

В этой теме нет новых непрочитанных сообщений. Супер Майк XXL / Magic Mike XXL (Грегори Джейкобс) [комедия, музыка, драма, 2015] BDRip 1080p, Dub+Sub [Blu-ray EUR]

Dracon

141 | 26

13.5 ГБ

В этой теме нет новых непрочитанных сообщений. Супер Майк XXL / Magic Mike XXL (Грегори Джейкобс) [комедия, музыка, драма, 2015] BDRip 720p, Dub+Sub [Blu-ray EUR]

Dracon

148 | 3

5.88 ГБ

В этой теме нет новых непрочитанных сообщений. Суперполицейские / Super Troopers [комедия, криминал, детектив, 2001] HDRip, Avo

salma3

33 | 3

1.37 ГБ


Начать новую тему Ответить на тему  [ 1 сообщение ] 




Для Мосгорсуда, Роскомнадзора и рекламодателей:: mosgorsud-torrent[собачка]yandex.ru