Торрент файл
скачать торрент магнет ссылка Добавлен: 15 янв 2012, 20:46
Размер: 2.41 ГБ
Сидеров: 15
Личеров: 9
Автор

СообщениеДобавлено: 15 янв 2012, 20:46 

Не в сети
Супермодератор
Аватара пользователя
Дата регистрации:
11 апр 2010, 18:10
Спасибо: 5960 / 7
Сообщения: 56765
Новая рождественская сказка / Scrooged

Перевод: Профессиональный (многоголосый, закадровый), cубтитры: Русские (полные, отключаемые)
Формат: HDRip, MKV, H.264, AC3
Страна: США
Режиссер: Ричард Доннер
Жанр: комедия, фэнтези, драма
Продолжительность: 01:40:55
Год выпуска: 1988
В ролях: Билл Мюррей, Карен Аллен, Джон Форсайт, Джон Гловер, Боб Голдтуэйт, Дэвид Джохансен, Кэрол Кейн, Роберт Митчум, Николас Филлипс, Майкл Дж. Поллард
Описание: Наступило Рождество… Но, к сожалению, волшебная сила этого чудесного праздника не в силах растопить лед в сердцах некоторых абсолютно черствых и самодовольных личностей. К числу подобных неисправимых типов относится и герой этой картины-магнат Фрэнк Кросс.
Он богат, всесилен и абсолютно равнодушен ко всему, кроме собственных денег. Кросс-владелец собственного телеканала, безжалостный и хладнокровный бизнесмен, с очень жестоким чувством юмора.
В общем, Фрэнк-один из тех парней, которые запросто могут испортить вам замечательный праздник. Таких людей, понятное дело, надо воспитывать, и чем быстрей, тем лучше. Ради такого случая в игру включаются сверхъестественные силы.
В рождественскую ночь перевоспитанием Фрэнка займутся специально подобранные для этого существа. А именно:призрак прошлого-веселый таксист из ада; призрак настоящего-современная, задорная фея без комплексов, использующая методы рукопашного боя и ужасный, немногословный посланник будущего, с черепом, вместо лица…


Видео: 1280x720 (16:9), 23,976 fps, MPEG4 AVC (х264), High@L4.1 ~2700 kbps avg, 0.122 bit/pixel
Аудио#1:Русский: 48 kHz,AC-3, 6 ch, ~384.00 kbps avg [Профессиональный (многоголосый, закадровый)]
Аудио#3:Английский: 48 kHz,AC-3, 6 ch, ~384.00 kbps avg [Внешним файлом: Оригинал]


Автор РИПа:
Общее
Уникальный идентификатор : 211599583665294773278982594977541668587 (0x9F3098F1D56028D3A5C964A9602C3EEB)
Полное имя : f:\Downloads\scrooged_[tfile.ru]\scrooged_[tfile.ru].mkv
Формат : Matroska
Размер файла : 2,14 Гбайт
Продолжительность : 1 ч. 40 м.
Общий поток : 3040 Кбит/сек
Дата кодирования : UTC 2011-11-07 18:19:04
Программа кодирования : mkvmerge v4.6.0 ('Still Crazy After All These Years') сборка от Mar 10 2011 02:50:32
Библиотека кодирования : libebml v1.2.0 + libmatroska v1.1.0

Видео
Идентификатор : 1
Формат : AVC
Формат/Информация : Advanced Video Codec
Профиль формата : High@L4.1
Параметр CABAC формата : Да
Параметр ReFrames формата : 3 кадра
Режим смешивания : Header stripping
Идентификатор кодека : V_MPEG4/ISO/AVC
Продолжительность : 1 ч. 40 м.
Битрейт : 2700 Кбит/сек
Ширина : 1280 пикс.
Высота : 720 пикс.
Соотношение сторон : 16:9
Режим частоты кадров : Переменный
Частота кадров : 23,976 кадр/сек
Цветовое пространство : YUV
Подвыборка цветности : 4:2:0
Битовая глубина : 8 бит
Тип развёртки : Прогрессивная
Бит/(Пиксели*Кадры) : 0.122
Размер потока : 1,83 Гбайт (85%)
Библиотека кодирования : x264 core 116 r2019M 9cc407d
Настройки программы : cabac=1 / ref=3 / deblock=1:-1:-1 / analyse=0x3:0x133 / me=hex / subme=7 / psy=1 / psy_rd=1.00:0.15 / mixed_ref=1 / me_range=16 / chroma_me=1 / trellis=1 / 8x8dct=1 / cqm=0 / deadzone=21,11 / fast_pskip=1 / chroma_qp_offset=-3 / threads=8 / sliced_threads=0 / nr=0 / decimate=1 / interlaced=0 / bluray_compat=0 / constrained_intra=0 / bframes=3 / b_pyramid=1 / b_adapt=2 / b_bias=0 / direct=3 / weightb=1 / open_gop=0 / weightp=2 / keyint=230 / keyint_min=23 / scenecut=40 / intra_refresh=0 / rc_lookahead=40 / rc=abr / mbtree=1 / bitrate=2700 / ratetol=1.0 / qcomp=0.60 / qpmin=10 / qpmax=51 / qpstep=4 / vbv_maxrate=31250 / vbv_bufsize=31250 / nal_hrd=none / ip_ratio=1.40 / aq=1:1.00
Язык : English

Аудио
Идентификатор : 2
Формат : AC-3
Формат/Информация : Audio Coding 3
Расширение режима : CM (complete main)
Режим смешивания : Header stripping
Идентификатор кодека : A_AC3
Продолжительность : 1 ч. 40 м.
Вид битрейта : Постоянный
Битрейт : 384 Кбит/сек
Каналы : 6 каналов
Расположение каналов : Front: L C R, Side: L R, LFE
Частота : 48,0 КГц
Битовая глубина : 16 бит
Метод сжатия : С потерями
Размер потока : 277 Мбайт (13%)
Заголовок : MVO
Язык : Russian

Текст
Идентификатор : 3
Формат : UTF-8
Идентификатор кодека : S_TEXT/UTF8
Идентификатор кодека/Информация : UTF-8 Plain Text
Язык : Russian
















Поделиться:




реклама партнёра


Вернуться к началу
 Профиль Отправить личное сообщение  
 
   Похожие торренты   Автор   Торрент   Размер 
В этой теме нет новых непрочитанных сообщений. Ад в Лягушачьем городе / Hell Comes to Frogtown [Ужасы, фэнтези, комедия, 1988] HDRip, Avo

salma3

10 | 2

1.41 ГБ

В этой теме нет новых непрочитанных сообщений. Рождественская история / Joulutarina [фэнтези, драма, семейный, 2007] BDRip 720p, Mvo

salma3

125 | 4

4.48 ГБ

В этой теме нет новых непрочитанных сообщений. Рождественская подмена / Christmas Trade [комедия, семейный, 2015] HDRip, Mvo [официальный звук]

salma3

246 | 70

1.53 ГБ

В этой теме нет новых непрочитанных сообщений. Изюминка / Punchline [драма, мелодрама, комедия, 1988] HDRip, Mvo [1 канал]

salma3

54 | 14

1.45 ГБ

В этой теме нет новых непрочитанных сообщений. Король-лягушонок / Der Froschkonig [фэнтези, мелодрама, семейный, 1988] HDRip, Avo

salma3

13 | 0

743.3 МБ

В этой теме нет новых непрочитанных сообщений. Рождественская звезда / A Christmas Star [семейный, 2015] HDRip, AVO

salma3

100 | 10

1.15 ГБ

В этой теме нет новых непрочитанных сообщений. Богиня Любви / Goddess of Love [фэнтези, комедия, 1988] DVDRip, Dvo

salma3

24 | 9

745.28 МБ


Начать новую тему Ответить на тему  [ 1 сообщение ] 




Для Мосгорсуда, Роскомнадзора и рекламодателей:: mosgorsud-torrent[собачка]yandex.ru