Торрент файл
скачать торрент магнет ссылка Добавлен: 15 янв 2012, 20:41
Размер: 1.45 ГБ
Сидеров: 245
Личеров: 6
Автор

СообщениеДобавлено: 15 янв 2012, 20:41 

Не в сети
Супермодератор
Аватара пользователя
Дата регистрации:
11 апр 2010, 18:10
Спасибо: 5913 / 7
Сообщения: 56777
Мальчишник 2: Из Вегаса в Бангкок / The Hangover Part II

Перевод: Профессиональный (полное дублирование)

Формат: HDRip, MKV, AVC, AC3

Страна: США

Режиссер: Тодд Филлипс / Todd Phillips

Жанр: комедия

Продолжительность: 01:41:48

Год выпуска: 2011

В ролях: Брэдли Купер, Эд Хелмс, Зак Галифианакис, Майк Тайсон, Джастин Барта, Кен Жонг, Пол Джаматти, Джефри Тэмбор, Мэйсон С. Ли, Джеми Чунг

Описание: В продолжении культовой комедии «Мальчишник в Вегасе» четверо друзей Фил, Стю, Алан и Даг отправляются в экзотический Тайланд на свадьбу Стю. После безумного мальчишника в Лас-Вегасе, они решают не испытывать судьбу во второй раз, а потому в Бангкоке планируют очень спокойное и безопасное празднество. Но как обычно, все идет совсем не по плану… Что происходит в Вегасе, остается в Вегасе. Но то, что происходит в Бангкоке — это просто настоящее безумие!



Видео: 1032x430 (2.40:1), 23.976 fps, AVC, High@L4.1, ~1661 kbps avg, 0.156 bits/pixel

Аудио: 48.0 KHz, AC3, (L,C,R,l,r), 6 ch , 384 kbps avg



Общее
Уникальный идентификатор: 237783060039872833562550141324602407627 (0xB2E359FFD4135E20AD2F10DE55587ACB)
Полное имя: C:\Фильмы и пр\the_hangover_2_[tfile.ru].mkv
Формат: Matroska
Размер файла: 1,45 Гбайт
Продолжительность: 1 ч. 41 м.
Общий поток: 2045 Кбит/сек
Название фильма: The Hangover Part II.chopper887
Дата кодирования: UTC 2011-11-18 18:22:24
Программа кодирования: mkvmerge v4.8.0 ('I Got The...') built on May 24 2011 03:12:58
Библиотека кодирования: libebml v1.2.0 + libmatroska v1.1.0

Видео
Идентификатор: 1
Формат: AVC
Формат/Информация: Advanced Video Codec
Профиль формата: High@L4.1
Параметр CABAC формата: Да
Параметр ReFrames формата: 10 кадров
Идентификатор кодека: V_MPEG4/ISO/AVC
Продолжительность: 1 ч. 41 м.
Битрейт: 1661 Кбит/сек
Ширина: 1032 пикс.
Высота: 430 пикс.
Соотношение сторон: 2,40:1
Частота кадров: 23,976 кадр/сек
Цветовое пространство: YUV
Подвыборка цветности: 4:2:0
Битовая глубина: 8 бит
Тип развёртки: Прогрессивная
Бит/(Пиксели*Кадры): 0.156
Размер потока: 1,15 Гбайт (79%)
Заголовок: The Hangover Part II.chopper887
Библиотека кодирования: x264 core 116 r2074 2641b9e
Настройки программы: cabac=1 / ref=10 / deblock=1:-2:-1 / analyse=0x3:0x133 / me=umh / subme=10 / psy=1 / psy_rd=0.95:0.05 / mixed_ref=1 / me_range=32 / chroma_me=1 / trellis=2 / 8x8dct=1 / cqm=0 / deadzone=21,11 / fast_pskip=0 / chroma_qp_offset=-3 / threads=3 / sliced_threads=0 / nr=0 / decimate=1 / interlaced=0 / bluray_compat=0 / constrained_intra=0 / bframes=8 / b_pyramid=2 / b_adapt=2 / b_bias=0 / direct=3 / weightb=1 / open_gop=0 / weightp=2 / keyint=250 / keyint_min=23 / scenecut=40 / intra_refresh=0 / rc_lookahead=80 / rc=2pass / mbtree=1 / bitrate=1661 / ratetol=1.0 / qcomp=0.70 / qpmin=0 / qpmax=69 / qpstep=4 / cplxblur=20.0 / qblur=0.5 / ip_ratio=1.40 / aq=1:1.00
Язык: English

Аудио
Идентификатор: 2
Формат: AC-3
Формат/Информация: Audio Coding 3
Расширение режима: CM (complete main)
Идентификатор кодека: A_AC3
Продолжительность: 1 ч. 41 м.
Вид битрейта: Постоянный
Битрейт: 384 Кбит/сек
Каналы: 6 каналов
Расположение каналов: Front: L C R, Side: L R, LFE
Частота: 48,0 КГц
Битовая глубина: 16 бит
Метод сжатия: С потерями
Размер потока: 280 Мбайт (19%)
Заголовок: Дубляж







Поделиться:




реклама партнёра


Вернуться к началу
 Профиль Отправить личное сообщение  
 
   Похожие торренты   Автор   Торрент   Размер 
В этой теме нет новых непрочитанных сообщений. Парни со стволами / War Dogs (Тодд Филлипс) [2016, драма, комедия, криминал, военный, BDRip 720p | iTunes] Dub

marya111

716 | 48

4.69 ГБ

В этой теме нет новых непрочитанных сообщений. Todd Rundgren - Arena - Todd (2 Albums) [2008 - 2011, Rock, Hard Rock, MP3]

PriZraK

0 | 1

283.35 МБ

В этой теме нет новых непрочитанных сообщений. Из Вегаса в Макао / Ao Men feng yun (Цзин Вон) [2014, комедия, боевик, HDRip] avo

Nickolas3435

541 | 37

1.37 ГБ

В этой теме нет новых непрочитанных сообщений. Мальчишник по-ирландски / The Stag [комедия, 2013] HDRip, Mvo

salma3

890 | 32

1.37 ГБ

В этой теме нет новых непрочитанных сообщений. Милдред Пирс / Mildred Pierce [01-05 из 05] (Тодд Хейнс) [2011, Драма, HDRip | Домашний]

Dracon

32 | 12

3.51 ГБ

В этой теме нет новых непрочитанных сообщений. Последние девушки / The Final Girls (Тодд Штраус-Шульсон) [Ужасы, комедия, 2015] HDRip, Mvo [iTunes]

Dracon

2653 | 46

1.45 ГБ

В этой теме нет новых непрочитанных сообщений. Из Вегаса в Макао / Ao Men feng yun [Боевик, комедия, 2014] BDRip 720p, Avo

salma3

43 | 14

3.98 ГБ


Начать новую тему Ответить на тему  [ 1 сообщение ] 




Для Мосгорсуда, Роскомнадзора и рекламодателей:: mosgorsud-torrent[собачка]yandex.ru