Торрент файл
скачать торрент магнет ссылка Добавлен: 15 янв 2012, 20:39
Размер: 2.09 ГБ
Сидеров: 21
Личеров: 6
Автор

СообщениеДобавлено: 15 янв 2012, 20:39 

Не в сети
Супермодератор
Аватара пользователя
Дата регистрации:
11 апр 2010, 18:10
Спасибо: 5799 / 7
Сообщения: 56779
Джей и молчаливый Боб наносят ответный удар / Jay and Silent Bob Strike Back

Перевод: Любительский (одноголосый), cубтитры: отсутствуют
Формат: BDRip, MKV, H.264, AC3
Страна: США
Режиссер: Кевин Смит / Kevin Smith
Жанр: комедия
Продолжительность: 01:44:27
Год выпуска: 2001

В ролях: Джейсон Мьюис, Кевин Смит, Бен Аффлек, Джефф Андерсон, Брайан О'Халлоран, Шэннон Элизабет, Элиза Душку, Али Лартер, Дженнифер Швалбах Смит
Описание: Как-то раз в один погожий день небезызвестные Джей и Тихий Боб как всегда подпирали спиной стену бакалейной лавки в Нью-Джерси, и именно там их застало страшное известие, что комикс «Пыхмэн и Хроник», прототипами персонажей которого они являются, собираются экранизировать в Голливуде.
Учитывая, что наша парочка не получила ни цента за то, что их именами нагло воспользовались, прилюдно выставив полными идиотами, Джей и Тихий Боб отправляются на студию «Miramax», дабы восстановить справедливость.




Видео: 1120x476 (2.35:1), 23,976fps, AVC (x264) High@L4.0, ~2310kbps, 0.184 bit/pixel
Аудио: 48 kHz, AC3, 6 ch (Front: L C R, Side: L R, LFE) ~ 448 kbps [Любительский (одноголосый)]



Релиз-Группа:

Перевод:Михаил "kyberpunk" Яроцкий !без цензуры!

От себя, по традиции, добавлю. Всем фанатам дубляжа по переводу МЭТРА Санаева совет: не смотреть. Не травмируйте свою психику – это не тот фильм, на котором Санаев когда-то решил потренировать свои замечательные писательские и режиссерские способности, убив при этом всю идею фильма и превратив его в убогий шлак, заменив почти все фразы на плоды своего собственного воображения.
Всем фанатам и поклонникам Кевина, а тем более тем, кто любит «Джерсийскую серию» – смотреть.

Общее
Уникальный идентификатор: 253049523689130332231456206445744423123 (0xBE5F90C52BA2B7368C74DFF4139300D3)
Полное имя: H:\VIDEO\Мои переводы\Jay.and.Silent.Bob.Strike.Back.2001.BDRip.AVO.kyberpunk-Bloodymetall.mkv
Формат: Matroska
Версия формата: Version 1
Размер файла: 2,09 Гбайт
Продолжительность: 1 ч. 44 м.
Общий поток: 2862 Кбит/сек
Название фильма: www.perevodman.com
Дата кодирования: UTC 2011-11-20 15:41:34
Программа кодирования: mkvmerge v2.4.2 ('Oh My God') built on Jan 18 2009 17:30:28
Библиотека кодирования: libebml v0.7.7 + libmatroska v0.8.1

Видео
Идентификатор: 1
Формат: AVC
Формат/Информация: Advanced Video Codec
Профиль формата: High@L4.0
Параметр CABAC формата: Да
Параметр ReFrames формата: 10 кадров
Идентификатор кодека: V_MPEG4/ISO/AVC
Продолжительность: 1 ч. 44 м.
Битрейт: 2357 Кбит/сек
Ширина: 1120 пикселей
Высота: 476 пикселей
Соотношение сторон: 2,35:1
Частота кадров: 23,976 кадра/сек
Цветовое пространство: YUV
Субдискретизация насыщенности: 4:2:0
Битовая глубина: 8 бит
Тип развёртки: Прогрессивная
Бит/(Пиксели*Кадры): 0.184
Размер потока: 1,72 Гбайт (82%)
Заголовок: Jay and Silent Bob Strike Back (2001)
Библиотека кодирования: x264 core 83 r1400 20fa784
Настройки программы: cabac=1 / ref=10 / deblock=1:-2:-1 / analyse=0x3:0x113 / me=umh / subme=10 / psy=1 / psy_rd=0.8:0.2 / mixed_ref=1 / me_range=25 / chroma_me=1 / trellis=2 / 8x8dct=1 / cqm=0 / deadzone=21,11 / fast_pskip=1 / chroma_qp_offset=-3 / threads=3 / sliced_threads=0 / nr=0 / decimate=1 / mbaff=0 / constrained_intra=0 / bframes=8 / b_pyramid=2 / b_adapt=2 / b_bias=0 / direct=1 / wpredb=1 / wpredp=2 / keyint=250 / keyint_min=25 / scenecut=40 / intra_refresh=0 / rc=crf / mbtree=0 / crf=18.6 / qcomp=0.60 / qpmin=10 / qpmax=51 / qpstep=4 / ip_ratio=1.40 / pb_ratio=1.30 / aq=2:0.90
Язык: English
Default: Да
Forced: Нет
Коэффициенты матрицы: BT.709-5, BT.1361, IEC 61966-2-4 709, SMPTE RP177

Аудио
Идентификатор: 2
Формат: AC-3
Формат/Информация: Audio Coding 3
Расширение режима: CM (complete main)
Идентификатор кодека: A_AC3
Продолжительность: 1 ч. 44 м.
Вид битрейта: Постоянный
Битрейт: 448 Кбит/сек
Каналы: 6 каналов
Расположение каналов: Front: L C R, Side: L R, LFE
Частота: 48,0 КГц
Битовая глубина: 16 бит
Метод сжатия: С потерями
Размер потока: 335 Мбайт (16%)
Заголовок: AVO Михаил "kyberpunk" Яроцкий
Язык: Russian
Default: Да
Forced: Нет

Меню
00:00:00.000: en:Opening Credits: "A Long Time Ago..."
00:04:31.479: en:"Where's Our Mother #*$!@A% Movie Check?"
00:12:43.929: en:Living by the Book
00:16:17.184: enoobie Dreams and Distractions
00:23:43.797: en:"What Is Your Damage, Little Boy?"
00:29:16.004: en:Two Patsies
00:33:13.116: en:Stealing the Monkey
00:43:12.423: en:"The Two Most Dangerous Men on the Planet"
00:49:48.443: en:"Surrender the Orangutan"
00:58:09.944: en:Finding Miramax and the Monkey
01:02:11.269: en:"Ooh What a Lovely Tea Party"
01:04:34.078: en:"It's Hunting Season"
01:08:41.033: en:"That's One Funky Monkey"
01:14:44.771: en:"A Gay Hood Ornament and the Color Purple"
01:20:59.187: en:"Crazy Crackers With Guns"
01:30:05.191: en:Kick Some Ass
01:32:34.590: en:"One 90-Minute-Long Gay Joke"
01:34:07.600: en:End Credits
01:44:26.260: en:






Поделиться:




реклама партнёра


Вернуться к началу
 Профиль Отправить личное сообщение  
 
   Похожие торренты   Автор   Торрент   Размер 
В этой теме нет новых непрочитанных сообщений. Джей и Молчаливый Боб наносят ответный удар / Jay and Silent Bob Strike Back (комедия. 2001) BDRip 1080p Dub+Mvo+Avo+Sub

Aleksandr.ru

67 | 2

9.92 ГБ

В этой теме нет новых непрочитанных сообщений. Ответный удар / Strike Back [S05] (Майкл Дж. Бассет, Джулиан Холмс) [2015, Боевик, триллер, драма, HDTVRip 1080p | Novamedia]

Nickolas3435

30 | 18

16.75 ГБ

В этой теме нет новых непрочитанных сообщений. Почтальон наносит ответный удар / Ответный удар / Xun cheng ma [боевик, драма, приключения, 1982] DVDRip, Mvo

salma3

8 | 4

1.47 ГБ

В этой теме нет новых непрочитанных сообщений. Супружеский долг / Satisfaction (US) [02х01-06 из 10] (Майкл Смит, Кевин Брей) [2015, Майкл Смит, Кевин Брей, WEB-DLRip | BaibaKo]

Dracon

49 | 53

3.34 ГБ

В этой теме нет новых непрочитанных сообщений. Первый удар / First Strike [боевик, триллер, комедия, 1996] DVDRip, Mvo

salma3

67 | 5

1.37 ГБ

В этой теме нет новых непрочитанных сообщений. Первый удар / First Strike [Боевик, триллер, комедия, приключения, 1996] BDRip 1080p, Mvo

salma3

63 | 7

8.19 ГБ

В этой теме нет новых непрочитанных сообщений. Кевин подождет / Kevin Can Wait [01x01-07 из 13] (Комедия, 2016) WEB-DL 720p | IdeaFilm

marya111

10 | 9

4.69 ГБ


Начать новую тему Ответить на тему  [ 1 сообщение ] 




Для Мосгорсуда, Роскомнадзора и рекламодателей:: mosgorsud-torrent[собачка]yandex.ru