Торрент файл
скачать торрент магнет ссылка Добавлен: 15 янв 2012, 20:39
Размер: 2.84 ГБ
Сидеров: 39
Личеров: 8
Автор

СообщениеДобавлено: 15 янв 2012, 20:39 

Не в сети
Супермодератор
Аватара пользователя
Дата регистрации:
11 апр 2010, 18:10
Спасибо: 5935 / 7
Сообщения: 56776
Страх и ненависть в Лас-Вегасе / Fear and Loathing in Las Vegas


Перевод: Профессиональный (двухголосый), cубтитры: отсутствуют
Формат: HDRip-AVC, MKV, H.264, AC3
Страна: США
Режиссер: Терри Гиллиам
Жанр: драма, комедия
Продолжительность: 01:58:28
Год выпуска: 1998

В ролях: Джонни Депп, Бенисио Дель Торо, Тоби Магуайр, Эллен Баркин, Гэри Бьюзи, Кристина Риччи, Марк Хэрмон, Кэмерон Диаз, Кэтрин Хелмонд, Майкл Джитер

Описание: Два приятеля едут в Лас-Вегас. Одного из них зовут Рауль Дьюк, он спортивный обозреватель, и в Вегас едет чтобы осветить знаменитую «Минт 400». Второго зовут Доктор Гонзо. Или что-то вроде того. А еще Доктор Гонзо — адвокат, но какая разница? Да и вокруг творится нечто невообразимое. Родную Неваду не узнать. Только специальные препараты могут спасти от всех этих тварей. Нормальным парням вроде наших героев временами даже как-то неуютно в этом хаосе…



Видео: 960 x 408 (2:35:1), 23.976 fps, AVC (х264) High@L4.1, ~ 2156 Kbps, 0.230 bit/pixel
Аудио #1: русский 48 kHz, AC3 Dolby Digital, 3/2 (L,C,R,l,r) + LFE ch, ~384 kbps avg [Профессиональный (двухголосый)]
Аудио #2: русский 48 kHz, AC3 Dolby Digital, 3/2 (L,C,R,l,r) + LFE ch, ~448 kbps avg [Авторский (Гаврилов)]
Аудио #3: русский 48 kHz, AC3 Dolby Digital, 3/2 (L,C,R,l,r) + LFE ch, ~448 kbps avg [Авторский (Живов)]


Рип: jeenart

General
Unique ID: 223404152611033371905580055961873558921 (0xA8121320F124A95EA474767CD0B62D89)
Complete name: F:\Мои релизы\Все релизы 10\strah_i_nenavict_v_las_vegace_[tfile.ru]\strah_i_nenavict_v_las_vegace_[tfile.ru].mkv
Format: Matroska
File size: 2.10 GiB
Duration: 1h 58mn
Overall bit rate: 2 541 Kbps
Encoded date: UTC 2011-11-27 08:20:39
Writing application: mkvmerge v4.6.0 ('Still Crazy After All These Years') сборка от Apr1 2011 21:01:49
Writing library: libebml v1.2.0 + libmatroska v1.1.0

Video
ID: 1
Format: AVC
Format/Info: Advanced Video Codec
Format profile: High@L4.1
Format settings, CABAC: Yes
Format settings, ReFrames: 4 frames
Codec ID: V_MPEG4/ISO/AVC
Duration: 1h 58mn
Bit rate: 2 156 Kbps
Width: 960 pixels
Height: 408 pixels
Display aspect ratio: 2.35:1
Frame rate: 23.976 fps
Color space: YUV
Chroma subsampling: 4:2:0
Bit depth: 8 bits
Scan type: Progressive
Bits/(Pixel*Frame): 0.230
Stream size: 1.74 GiB (83%)
Writing library: x264 core 115 r1937 aa21558
Encoding settings: cabac=1 / ref=3 / deblock=1:-1:-1 / analyse=0x3:0x113 / me=hex / subme=7 / psy=1 / psy_rd=1.00:0.10 / mixed_ref=1 / me_range=16 / chroma_me=1 / trellis=1 / 8x8dct=1 / cqm=0 / deadzone=21,11 / fast_pskip=1 / chroma_qp_offset=-3 / threads=6 / sliced_threads=0 / nr=0 / decimate=1 / interlaced=0 / bluray_compat=0 / constrained_intra=0 / bframes=3 / b_pyramid=2 / b_adapt=1 / b_bias=0 / direct=3 / weightb=1 / open_gop=0 / weightp=2 / keyint=250 / keyint_min=23 / scenecut=40 / intra_refresh=0 / rc_lookahead=40 / rc=2pass / mbtree=1 / bitrate=2156 / ratetol=1.0 / qcomp=0.60 / qpmin=0 / qpmax=69 / qpstep=4 / cplxblur=20.0 / qblur=0.5 / ip_ratio=1.40 / aq=1:1.00

Audio
ID: 2
Format: AC-3
Format/Info: Audio Coding 3
Mode extension: CM (complete main)
Codec ID: A_AC3
Duration: 1h 58mn
Bit rate mode: Constant
Bit rate: 384 Kbps
Channel(s): 6 channels
Channel positions: Front: L C R, Side: L R, LFE
Sampling rate: 48.0 KHz
Bit depth: 16 bits
Compression mode: Lossy
Stream size: 325 MiB (15%)
















Поделиться:




реклама партнёра


Вернуться к началу
 Профиль Отправить личное сообщение  
 
   Похожие торренты   Автор   Торрент   Размер 
В этой теме нет новых непрочитанных сообщений. Теорема Зеро / The Zero Theorem (Терри Гиллиам) [2013, фантастика, триллер, драма, комедия, BDRip 1080p] Dub+2avo

Nickolas3435

343 | 15

10.52 ГБ

В этой теме нет новых непрочитанных сообщений. Страх темноты / The Fear of Darkness [ужасы, триллер, 2015] HDRip, Dub [iTunes]

salma3

4252 | 669

1.45 ГБ

В этой теме нет новых непрочитанных сообщений. Тараканы - Страх и ненависть [2002, Punk Rock, MP3]

PriZraK

0 | 1

88.58 МБ

В этой теме нет новых непрочитанных сообщений. Корпорация «Страх» / Fear, Inc. [ужасы, триллер, комедия, 2016] WEB-DLRip, Avo

salma3

438 | 120

1.27 ГБ

В этой теме нет новых непрочитанных сообщений. Страх отпирает двери / Fear Is the Key [боевик, триллер, драма, криминал, 1972] DVDRip, Mvo

salma3

244 | 51

1.43 ГБ

В этой теме нет новых непрочитанных сообщений. Возрастающий страх / Rising Fear [боевик, 2016] WEB-DLRip, Mvo

salma3

786 | 249

1.37 ГБ

В этой теме нет новых непрочитанных сообщений. Возрастающий страх / Rising Fear [боевик, 2016] WEB-DLRip 720р, Mvo

salma3

184 | 138

3.03 ГБ


Начать новую тему Ответить на тему  [ 1 сообщение ] 




Для Мосгорсуда, Роскомнадзора и рекламодателей:: mosgorsud-torrent[собачка]yandex.ru