Торрент файл
скачать торрент магнет ссылка Добавлен: 15 янв 2012, 20:36
Размер: 2.1 ГБ
Сидеров: 43
Личеров: 4
Автор

СообщениеДобавлено: 15 янв 2012, 20:36 

Не в сети
Супермодератор
Аватара пользователя
Дата регистрации:
11 апр 2010, 18:10
Спасибо: 5960 / 7
Сообщения: 56765
Ужин с придурками / Dinner for Schmucks



Перевод:Профессиональный (полное дублирование), субтитры: отсутствуют
Формат: HDRip-AVC, MKV, H.264, AC3
Страна: США
Жанр: комедия
Продолжительность: 01:54:03
Режиссер: Джей Роуч / Jay Roach
Год выпуска: 2010

В ролях: Стив Карелл, Пол Радд, Зак Галифианакис, Джемейн Клемент, Стефани Зостак, Люси Панч, Брюс Гринвуд, Дэвид Уоллиамс, Рон Ливингстон, Ларри Уилмор.

Описание: Простой служащий фирмы Тим получил своё первое приглашение на «ужин для придурков». Это ежемесячное мероприятие устраивает его босс, и тот, кто покажет себя самым большим идиотом, может рассчитывать на некоторые бонусы в будущем.

Невеста Тима — Джулии — находит всё это ужасным, и Тим соглашается пропустить ужин, но случайно знакомится с Барри — сотрудником налоговой службы, который в свободное время конструирует диорамы из чучел мышей. Тим приглашает с собой на ужин Барри, который становится причиной злоключений Тима. У него едва не срывается важная сделка, его бывшая подруга возвращается в его жизнь, а Джулии попадает в объятия другого….

________


Видео: 1 280x 720 (1:77:7), 23,976 кадр/сек, AVC (х264), High@L3.1, ~ 2 254Kbps,0.102bit/pixel
Аудио: 48 kHz, AC3 Dolby Digital, 3/2 (L,C,R,l,r) + LFE ch, ~384 kbps

Автор РИПа:ANDREY22W22
Общее
Уникальный идентификатор: 249039961558469557145343257228771384403 (0xBB5B5A182DF5501DBA22B7729A44DC53)
Полное имя: E:\рипы\dinner_for_schmucks_[tfile.ru].mkv
Формат: Matroska
Версия формата: Version 2
Размер файла: 2,10 Гбайт
Продолжительность: 1 ч. 54 м.
Общий поток: 2639 Кбит/сек
Дата кодирования: UTC 2011-12-04 16:36:28
Программа кодирования: mkvmerge v4.9.1 ('Ich will') зібрано Aug 10 2011 09:31:20
Библиотека кодирования: libebml v1.2.1 + libmatroska v1.2.0

Видео
Идентификатор: 1
Формат: AVC
Формат/Информация: Advanced Video Codec
Профиль формата: High@L3.1
Параметр CABAC формата: Да
Параметр ReFrames формата: 4 кадра
Идентификатор кодека: V_MPEG4/ISO/AVC
Продолжительность: 1 ч. 54 м.
Битрейт: 2254 Кбит/сек
Ширина: 1280 пикс.
Высота: 720 пикс.
Соотношение сторон: 16:9
Частота кадров: 23,976 кадр/сек
Цветовое пространство: YUV
Подвыборка цветности: 4:2:0
Битовая глубина: 8 бит
Тип развёртки: Прогрессивная
Бит/(Пиксели*Кадры): 0.102
Размер потока: 1,75 Гбайт (83%)
Библиотека кодирования: x264 core 116 r2074 2641b9e
Настройки программы: cabac=1 / ref=3 / deblock=1:0:0 / analyse=0x3:0x113 / me=hex / subme=7 / psy=1 / psy_rd=1.00:0.00 / mixed_ref=1 / me_range=16 / chroma_me=1 / trellis=1 / 8x8dct=1 / cqm=0 / deadzone=21,11 / fast_pskip=1 / chroma_qp_offset=-2 / threads=12 / sliced_threads=0 / nr=0 / decimate=1 / interlaced=0 / bluray_compat=0 / constrained_intra=0 / bframes=3 / b_pyramid=2 / b_adapt=1 / b_bias=0 / direct=1 / weightb=1 / open_gop=0 / weightp=2 / keyint=250 / keyint_min=23 / scenecut=40 / intra_refresh=0 / rc_lookahead=40 / rc=2pass / mbtree=1 / bitrate=2254 / ratetol=1.0 / qcomp=0.60 / qpmin=0 / qpmax=69 / qpstep=4 / cplxblur=20.0 / qblur=0.5 / ip_ratio=1.40 / aq=1:1.00

Аудио
Идентификатор: 2
Формат: AC-3
Формат/Информация: Audio Coding 3
Расширение режима: CM (complete main)
Идентификатор кодека: A_AC3
Продолжительность: 1 ч. 54 м.
Вид битрейта: Постоянный
Битрейт: 384 Кбит/сек
Каналы: 6 каналов
Расположение каналов: Front: L C R, Side: L R, LFE
Частота: 48,0 КГц
Битовая глубина: 16 бит
Метод сжатия: С потерями
Размер потока: 313 Мбайт (15%)







Поделиться:




реклама партнёра


Вернуться к началу
 Профиль Отправить личное сообщение  
 
   Похожие торренты   Автор   Торрент   Размер 
В этой теме нет новых непрочитанных сообщений. Весёлый ужин мамочек / Fun Mom Dinner [комедия, 2017] WEB-DLRip, Mvo

salma3

420 | 57

1.34 ГБ

В этой теме нет новых непрочитанных сообщений. Ужин с друзьями / Dinner with Friends [Комедия, драма, 2001] DVDRip, Avo

salma3

30 | 0

1.37 ГБ

В этой теме нет новых непрочитанных сообщений. Трамбо / Trumbo (Джей Роуч) [драма, биография, 2015] HDRip, dvo

Dracon

498 | 47

1.37 ГБ

В этой теме нет новых непрочитанных сообщений. Трамбо / Trumbo (Джей Роуч) [2015, драма, биография, HDRip] mvo

Nickolas3435

340 | 20

1.37 ГБ

В этой теме нет новых непрочитанных сообщений. Трамбо / Trumbo (Джей Роуч) [2015, драма, биография, HDRip] mvo

Nickolas3435

294 | 11

2.05 ГБ

В этой теме нет новых непрочитанных сообщений. На грани / The Brink [S01] (Джон Полл, Джей Роуч, Скотт Уинант) [Комедия, 2015] HDTVRip 1080p [NewStudio]

Dracon

77 | 69

20.13 ГБ

В этой теме нет новых непрочитанных сообщений. На грани / The Brink [01х01-10 из 10] (Джон Полл, Джей Роуч, Скотт Уинант) [Комедия, 2015] HDTVRip 720p [Amedia]

Dracon

204 | 149

10 ГБ


Начать новую тему Ответить на тему  [ 1 сообщение ] 




Для Мосгорсуда, Роскомнадзора и рекламодателей:: mosgorsud-torrent[собачка]yandex.ru