Торрент файл
скачать торрент магнет ссылка Добавлен: 15 янв 2012, 20:35
Размер: 2.09 ГБ
Сидеров: 13
Личеров: 5
Автор

СообщениеДобавлено: 15 янв 2012, 20:35 

Не в сети
Супермодератор
Аватара пользователя
Дата регистрации:
11 апр 2010, 18:10
Спасибо: 5801 / 7
Сообщения: 56779
Беглецы / Les fugitifs

Перевод: Профессиональный (полное дублирование), cубтитры: Русские, Французские (полные, отключаемые)
Формат: DVDRip, MKV, H.264, AC3
Страна: Франция
Режиссер: Франсис Вебер
Жанр: комедия, криминал
Продолжительность: 01:25:41
Год выпуска: 1986
В ролях: Пьер Ришар, Жерар Депардье, Жан Карме, Морис Барье, Жан Бенгиги, Ролан Бланш, Анаис Бре, Филипп Лельевр, Ивелин Айо, Дидье Пэн
Описание: Нескладный грабитель банка захватывает в заложники бывшего «крутого» заключенного. Полиция бросается за ними в погоню, герои меняются ролями. «Заложник» становится нянькой «похитителя» и «отцом» его немой дочери. Теперь «крутой», который сидел за 14 ограблений банков твердо решил «завязать».
Он помогает странной семейке скрываться от полиции, навлекая на себя массу новых проблем. Но, в награду ему будет атмосфера семейной любви, о чем он не имел понятия, и даже маленькое чудо, произошедшее с немой девочкой…


Видео: 720x448 (1,621:1), 25,000 fps, MPEG4 AVC (х264), High@L4.1 ~2700 kbps avg, 0.335 bit/pixel
Аудио#1:Русский: 48 kHz,AC-3, 2 ch, ~192.00 kbps avg [Профессиональный (полное дублирование)]
Аудио#2:Русский: 48 kHz,AC-3, 2 ch, ~192.00 kbps avg [Профессиональный (многоголосый, закадровый, ОРТ)]
Аудио#3:Русский: 48 kHz,AC-3, 2 ch, ~192.00 kbps avg [Профессиональный (многоголосый, закадровый)]
Аудио#4:Французский: 48 kHz,AC-3, 2 ch, ~192.00 kbps avg [Оригинал]


Автор РИПа:
Общее
Уникальный идентификатор : 253387726550740644770468108126633157210 (0xBEA0B3756B5CB8899D1D26FD45B9625A)
Полное имя : f:\Downloads\les_fugitifs_[tfile.ru].mkv
Формат : Matroska
Версия формата : Version 2
Размер файла : 2,09 Гбайт
Продолжительность : 1 ч. 25 м.
Общий поток : 3494 Кбит/сек
Дата кодирования : UTC 2011-12-08 01:26:17
Программа кодирования : mkvmerge v4.6.0 ('Still Crazy After All These Years') сборка от Mar 10 2011 02:50:32
Библиотека кодирования : libebml v1.2.0 + libmatroska v1.1.0

Видео
Идентификатор : 1
Формат : AVC
Формат/Информация : Advanced Video Codec
Профиль формата : High@L4.1
Параметр CABAC формата : Да
Параметр ReFrames формата : 3 кадра
Режим смешивания : Header stripping
Идентификатор кодека : V_MPEG4/ISO/AVC
Продолжительность : 1 ч. 25 м.
Битрейт : 2700 Кбит/сек
Ширина : 720 пикселей
Высота : 448 пикселей
Соотношение сторон : 1,621
Соотношение сторон в оригинале : 1,620
Режим частоты кадров : Переменный
Частота кадров : 25,000 кадров/сек
Цветовое пространство : YUV
Субдискретизация насыщенности : 4:2:0
Битовая глубина : 8 бит
Тип развёртки : MBAFF
Бит/(Пиксели*Кадры) : 0.335
Размер потока : 1,59 Гбайт (76%)
Библиотека кодирования : x264 core 116 r2019M 9cc407d
Настройки программы : cabac=1 / ref=3 / deblock=1:-1:-1 / analyse=0x3:0x133 / me=hex / subme=7 / psy=1 / psy_rd=1.00:0.15 / mixed_ref=1 / me_range=16 / chroma_me=1 / trellis=1 / 8x8dct=1 / cqm=0 / deadzone=21,11 / fast_pskip=1 / chroma_qp_offset=-3 / threads=8 / sliced_threads=0 / nr=0 / decimate=1 / interlaced=tff / bluray_compat=0 / constrained_intra=0 / bframes=3 / b_pyramid=1 / b_adapt=2 / b_bias=0 / direct=3 / weightb=1 / open_gop=0 / weightp=0 / keyint=250 / keyint_min=25 / scenecut=40 / intra_refresh=0 / rc_lookahead=40 / rc=abr / mbtree=1 / bitrate=2700 / ratetol=1.0 / qcomp=0.60 / qpmin=10 / qpmax=51 / qpstep=4 / vbv_maxrate=9000 / vbv_bufsize=1835 / nal_hrd=none / ip_ratio=1.40 / aq=1:1.00
Язык : French
Default : Да
Forced : Нет

Аудио #1
Идентификатор : 2
Формат : AC-3
Формат/Информация : Audio Coding 3
Расширение режима : CM (complete main)
Режим смешивания : Header stripping
Идентификатор кодека : A_AC3
Продолжительность : 1 ч. 25 м.
Вид битрейта : Постоянный
Битрейт : 192 Кбит/сек
Каналы : 2 канала
Расположение каналов : Front: L R
Частота : 48,0 КГц
Битовая глубина : 16 бит
Метод сжатия : С потерями
Размер потока : 118 Мбайт (5%)
Заголовок : DUB
Язык : Russian
Default : Да
Forced : Нет

Аудио #2
Идентификатор : 3
Формат : AC-3
Формат/Информация : Audio Coding 3
Расширение режима : CM (complete main)
Режим смешивания : Header stripping
Идентификатор кодека : A_AC3
Продолжительность : 1 ч. 25 м.
Вид битрейта : Постоянный
Битрейт : 192 Кбит/сек
Каналы : 2 канала
Расположение каналов : Front: L R
Частота : 48,0 КГц
Битовая глубина : 16 бит
Метод сжатия : С потерями
Размер потока : 118 Мбайт (5%)
Заголовок : MVO(ORT)
Язык : Russian
Default : Нет
Forced : Нет

Аудио #3
Идентификатор : 4
Формат : AC-3
Формат/Информация : Audio Coding 3
Расширение режима : CM (complete main)
Режим смешивания : Header stripping
Идентификатор кодека : A_AC3
Продолжительность : 1 ч. 25 м.
Вид битрейта : Постоянный
Битрейт : 192 Кбит/сек
Каналы : 2 канала
Расположение каналов : Front: L R
Частота : 48,0 КГц
Битовая глубина : 16 бит
Метод сжатия : С потерями
Размер потока : 118 Мбайт (5%)
Заголовок : MVO
Язык : Russian
Default : Нет
Forced : Нет

Аудио #4
Идентификатор : 5
Формат : AC-3
Формат/Информация : Audio Coding 3
Расширение режима : CM (complete main)
Режим смешивания : Header stripping
Идентификатор кодека : A_AC3
Продолжительность : 1 ч. 25 м.
Вид битрейта : Постоянный
Битрейт : 192 Кбит/сек
Каналы : 2 канала
Расположение каналов : Front: L R
Частота : 48,0 КГц
Битовая глубина : 16 бит
Метод сжатия : С потерями
Размер потока : 118 Мбайт (5%)
Заголовок : FRE
Язык : French
Default : Нет
Forced : Нет

Текст #1
Идентификатор : 6
Формат : UTF-8
Идентификатор кодека : S_TEXT/UTF8
Идентификатор кодека/Информация : UTF-8 Plain Text
Язык : Russian
Default : Да
Forced : Нет

Текст #2
Идентификатор : 7
Формат : UTF-8
Идентификатор кодека : S_TEXT/UTF8
Идентификатор кодека/Информация : UTF-8 Plain Text
Язык : French
Default : Нет
Forced : Нет


















Поделиться:




реклама партнёра


Вернуться к началу
 Профиль Отправить личное сообщение  
 
   Похожие торренты   Автор   Торрент   Размер 
В этой теме нет новых непрочитанных сообщений. Беглецы / Fugitives / Les fugitifs [комедия, криминал, 1986] BDRip, Dub [СССР]

salma3

137 | 12

1.45 ГБ

В этой теме нет новых непрочитанных сообщений. Как правильно смеяться над президентом ("Игрушка", 1976, Франсис Вебер, Пьер Ришар) Меняйлов [2011, фильм о фильме, WEBRip]

vairgin

1 | 2

401.55 МБ

В этой теме нет новых непрочитанных сообщений. Беглецы / Fled [Боевик, криминал, комедия, 1996] HDTVRip, Dub+Avo

salma3

96 | 5

1.46 ГБ

В этой теме нет новых непрочитанных сообщений. Дух мщения / The Wraith [Фантастика, боевик, триллер, мелодрама, 1986] BDRip, 2Mvo+Avo+Dvo+Sub

salma3

17 | 8

2.16 ГБ

В этой теме нет новых непрочитанных сообщений. Горец / Highlander [фэнтези, боевик, драма, приключения, 1986] BDRip 1080p, 2Mvo+4Avo+Sub

salma3

60 | 10

17.87 ГБ

В этой теме нет новых непрочитанных сообщений. Идеальный друг / Un ami parfait / Ein perfekter Freund (Франсис Жиро / Francis Girod) [2006г., Франция, триллер, криминал, DVDRip-AVC]MVO

Alfredovich

32 | 6

2.18 ГБ

В этой теме нет новых непрочитанных сообщений. Папаши / Les compères / The ComDads [комедия, криминал, 1983] BDRip 720p, 2Mvo+Dub+2Dvo

salma3

14 | 2

11.24 ГБ


Начать новую тему Ответить на тему  [ 1 сообщение ] 




Для Мосгорсуда, Роскомнадзора и рекламодателей:: mosgorsud-torrent[собачка]yandex.ru