Торрент файл
скачать торрент магнет ссылка Добавлен: 15 янв 2012, 20:34
Размер: 2.1 ГБ
Сидеров: 131
Личеров: 10
Автор

СообщениеДобавлено: 15 янв 2012, 20:34 

Не в сети
Супермодератор
Аватара пользователя
Дата регистрации:
11 апр 2010, 18:10
Спасибо: 5960 / 7
Сообщения: 56765
Персонаж / Stranger Than Fiction

Перевод: Профессиональный (полное дублирование), cубтитры: Русские (полные, отключаемые)
Формат: HDRip, MKV, H.264, AC3
Страна: США
Режиссер: Марк Форстер
Жанр: комедия, фэнтези, драма, мелодрама
Продолжительность: 01:52:55
Год выпуска: 2006
В ролях: Уилл Феррелл, Мэгги Джилленхол, Эмма Томпсон, Дастин Хоффман, Куин Латифа, Линда Хант, Том Халс, Питер Гроц, Рики Адамс, Кристиан Столте
Описание: Карен Айфел заканчивает свой последний роман об одиноком человеке Харольде Крике. Она даже не подозревает о том, что ее персонаж абсолютно реален! Настоящий Харольд Крик умирает от скуки, пока в один прекрасный день не начинает слышать голос Карен, рассказывающий о том, что и как ему следует делать.
Жизнь Крика преображается, он начинает общаться с коллегами и ухаживать за женщинами. Настоящее беспокойство овладевает Харольдом, когда он слышит, что Карен планирует завершить роман его смертью…


Видео: 1280x696 (16:9), 23,976 fps, MPEG4 AVC (х264), High@L4.1 ~2300 kbps avg, 0.108 bit/pixel
Аудио: 48 kHz,AC-3, 6 ch, ~384.00 kbps avg


Автор РИПа:
Награды:
Золотой глобус, 2007 год
Номинации (1):
Лучшая мужская роль (комедия или мюзикл) (Уилл Феррелл)
Сатурн, 2007 год
Номинации (5):
Лучший актер (Уилл Феррелл)
Лучшая актриса (Мэгги Джилленхол)
Лучшая актриса второго плана (Эмма Томпсон)
Лучший сценарий
Лучший фэнтези-фильм

Общее
Уникальный идентификатор : 204889497727967223092786197943172385070 (0x9A24482A5E0E19828657379C7A3EC92E)
Полное имя : f:\Downloads\stranger_than_fiction_[tfile.ru].mkv
Формат : Matroska
Версия формата : Version 2
Размер файла : 2,10 Гбайт
Продолжительность : 1 ч. 52 м.
Общий поток : 2659 Кбит/сек
Дата кодирования : UTC 2011-12-15 01:03:03
Программа кодирования : mkvmerge v4.6.0 ('Still Crazy After All These Years') сборка от Mar 10 2011 02:50:32
Библиотека кодирования : libebml v1.2.0 + libmatroska v1.1.0

Видео
Идентификатор : 1
Формат : AVC
Формат/Информация : Advanced Video Codec
Профиль формата : High@L4.1
Параметр CABAC формата : Да
Параметр ReFrames формата : 3 кадра
Режим смешивания : Header stripping
Идентификатор кодека : V_MPEG4/ISO/AVC
Продолжительность : 1 ч. 52 м.
Битрейт : 2300 Кбит/сек
Ширина : 1280 пикселей
Высота : 696 пикселей
Соотношение сторон : 16:9
Режим частоты кадров : Переменный
Частота кадров : 23,976 кадра/сек
Цветовое пространство : YUV
Субдискретизация насыщенности : 4:2:0
Битовая глубина : 8 бит
Тип развёртки : Прогрессивная
Бит/(Пиксели*Кадры) : 0.108
Размер потока : 1,75 Гбайт (84%)
Библиотека кодирования : x264 core 116 r2019M 9cc407d
Настройки программы : cabac=1 / ref=3 / deblock=1:-1:-1 / analyse=0x3:0x133 / me=hex / subme=7 / psy=1 / psy_rd=1.00:0.15 / mixed_ref=1 / me_range=16 / chroma_me=1 / trellis=1 / 8x8dct=1 / cqm=0 / deadzone=21,11 / fast_pskip=1 / chroma_qp_offset=-3 / threads=8 / sliced_threads=0 / nr=0 / decimate=1 / interlaced=0 / bluray_compat=0 / constrained_intra=0 / bframes=3 / b_pyramid=1 / b_adapt=2 / b_bias=0 / direct=3 / weightb=1 / open_gop=0 / weightp=2 / keyint=230 / keyint_min=23 / scenecut=40 / intra_refresh=0 / rc_lookahead=40 / rc=abr / mbtree=1 / bitrate=2300 / ratetol=1.0 / qcomp=0.60 / qpmin=10 / qpmax=51 / qpstep=4 / vbv_maxrate=31250 / vbv_bufsize=31250 / nal_hrd=none / ip_ratio=1.40 / aq=1:1.00
Язык : English
Default : Да
Forced : Нет

Аудио
Идентификатор : 2
Формат : AC-3
Формат/Информация : Audio Coding 3
Расширение режима : CM (complete main)
Режим смешивания : Header stripping
Идентификатор кодека : A_AC3
Продолжительность : 1 ч. 52 м.
Вид битрейта : Постоянный
Битрейт : 384 Кбит/сек
Каналы : 6 каналов
Расположение каналов : Front: L C R, Side: L R, LFE
Частота : 48,0 КГц
Битовая глубина : 16 бит
Метод сжатия : С потерями
Размер потока : 310 Мбайт (14%)
Заголовок : DUB
Язык : Russian
Default : Да
Forced : Нет

Текст
Идентификатор : 3
Формат : UTF-8
Идентификатор кодека : S_TEXT/UTF8
Идентификатор кодека/Информация : UTF-8 Plain Text
Язык : Russian
Default : Да
Forced : Нет
















Поделиться:




реклама партнёра


Вернуться к началу
 Профиль Отправить личное сообщение  
 
   Похожие торренты   Автор   Торрент   Размер 
В этой теме нет новых непрочитанных сообщений. Десница божья / Hand of God [01x10 из 10] (Марк Форстер, Брэд Андерсон, Сара Пиа Андерсон) [2015, Драма, WEBRip 720p | IdeaFilm]

Dracon

19 | 27

16.87 ГБ

В этой теме нет новых непрочитанных сообщений. Десница Божья / Hand of God [S01] (Марк Форстер, Брэд Андерсон, Сара Пиа Андерсон) [драма, криминал, 2014-2015] WEBRip [BaibaKo]

Dracon

124 | 66

7.31 ГБ

В этой теме нет новых непрочитанных сообщений. Десница Бога / Hand of God [S01] (Марк Форстер, Брэд Андерсон, Сара Пиа Андерсон) [драма, криминал, 2014-2015] WEBRip 720p [BaibaKo]

Dracon

231 | 238

14.13 ГБ

В этой теме нет новых непрочитанных сообщений. Десница Божья / Hand of God [01x01-10 из 10] (Марк Форстер, Брэд Андерсон, Сара Пиа Андерсон) [2014-2015, драма, криминал, WEBRip | IdeaFilm]

Dracon

77 | 28

4.23 ГБ

В этой теме нет новых непрочитанных сообщений. Исправленный вариант / The Rewrite (Марк Лоуренс) [Мелодрама, Комедия, 2014] HDRip, dvo

Dracon

2 | 0

1.46 ГБ

В этой теме нет новых непрочитанных сообщений. ПиКей / PK [Фэнтези, драма, мелодрама, комедия, 2014] HDRip, Dvo+Sub

salma3

1345 | 60

1.46 ГБ

В этой теме нет новых непрочитанных сообщений. Не менее странно, чем любовь / No Stranger Than Love [мелодрама, комедия, 2015] WEBDLRip, Mvo

salma3

34 | 2

1.35 ГБ


Начать новую тему Ответить на тему  [ 1 сообщение ] 




Для Мосгорсуда, Роскомнадзора и рекламодателей:: mosgorsud-torrent[собачка]yandex.ru