Торрент файл
скачать торрент магнет ссылка Добавлен: 15 янв 2012, 20:34
Размер: 2.17 ГБ
Сидеров: 68
Личеров: 7
Автор

СообщениеДобавлено: 15 янв 2012, 20:34 

Не в сети
Супермодератор
Аватара пользователя
Дата регистрации:
11 апр 2010, 18:10
Спасибо: 5801 / 7
Сообщения: 56779
Секс в большом городе 2 / Sex and the City 2


Перевод: Профессиональный (полное дублирование)
Субтитры: Русские (Forced),Русские (Full), Английские
Формат: HDRip-AVC, MKV, H.264, AC3
Страна: США
Режиссер: Майкл Патрик Кинг
Жанр: комедия, мелодрама, драма
Продолжительность: 02:26:25
Год выпуска: 2010

В ролях: Сара Джессика Паркер, Кристин Дэвис, Синтия Никсон, Ким Кэтролл, Дэвид Эйденберг, Эван Хэндлер, Джейсон Льюис, Уилли Гарсон, Марио Кантоне, Александра Фонг.

Описание: Безумное веселье, яркая мода и преданная дружба: «Секс в большом городе-2» снова дарит нам их, и даже больше, ведь Кэрри, Саманта, Шарлотта и Миранда готовы показать нам еще один «кусочек» их жизни в «Большом Яблоке» — и за его пределами, — как они устраивают свои дела и личную жизнь в этом действительно сверкающем сиквеле. Что происходит, когда сказано самое главное слово: «Да»? Жизнь становится такой, о которой мечтали подруги, но это был бы не «Секс в большом городе», если бы судьба не приготовила пару сюрпризов… на этот раз в виде гламурного, насыщенного солнцем приключения, которое уносит девушек из Нью-Йорка в одно из наиболее роскошных, экзотических и живописных местечек на земле, туда, где никогда не заканчивается веселье, где за каждым углом происходит что-то загадочное. В самый подходящий момент четыре закадычные подруги совершают своеобразный побег и оказываются вовлеченными в борьбу с традиционными представлениями о браке, материнстве и т.д и т.п. В конце концов, у их противников просто нет шансов.


Видео: 1024x576(16:9),23,976 кадр/сек,AVC(x264),High@L4.1~1549Kbps,0.110bit/pixel
Аудио 1: Русский:48,0 КГц,AC3 6 каналов,(L,C,R,l,r) + LFE,~384kbps Профессиональный (полное дублирование)
Аудио 2: Английский:48,0 КГц,AC3 2 канала,(l,r)~192kbps (Оригинал)[/field]




Общее
Уникальный идентификатор: 254591699795742265954785619935426389127 (0xBF8893EC33B69E4AA2A7A2F457D62487)
Полное имя: D:\Интернет\Sex.and.The.City.2.2010.BDRip-AVC.mkv
Формат: Matroska
Версия формата: Version 2
Размер файла: 2,17 Гбайт
Продолжительность: 2 ч. 26 м.
Общий поток: 2125 Кбит/сек
Название фильма: Секс в большом городе 2
Дата кодирования: UTC 2010-11-02 20:36:43
Программа кодирования: mkvmerge v2.9.7 ('Tenderness') built on Jul1 2009 18:43:35
Библиотека кодирования: libebml v0.7.7 + libmatroska v0.8.1

Видео
Идентификатор: 1
Формат: AVC
Формат/Информация: Advanced Video Codec
Профиль формата: High@L4.1
Параметр CABAC формата: Да
Параметр ReFrames формата: 5 кадров
Идентификатор кодека: V_MPEG4/ISO/AVC
Продолжительность: 2 ч. 26 м.
Битрейт: 1549 Кбит/сек
Ширина: 1024 пикс.
Высота: 576 пикс.
Соотношение сторон: 16:9
Частота кадров: 23,976 кадр/сек
Цветовое пространство: YUV
Подвыборка цветности: 4:2:0
Битовая глубина: 8 бит
Тип развёртки: Прогрессивная
Бит/(Пиксели*Кадры): 0.110
Размер потока: 1,54 Гбайт (71%)
Заголовок: Секс в большом городе 2
Библиотека кодирования: x264 core 98 r1649 c54c47d
Настройки программы: cabac=1 / ref=5 / deblock=1:-2:-1 / analyse=0x3:0x113 / me=umh / subme=9 / psy=1 / psy_rd=1.00:0.20 / mixed_ref=1 / me_range=32 / chroma_me=1 / trellis=2 / 8x8dct=1 / cqm=0 / deadzone=21,11 / fast_pskip=0 / chroma_qp_offset=-6 / threads=3 / sliced_threads=0 / nr=0 / decimate=1 / interlaced=0 / constrained_intra=0 / bframes=9 / b_pyramid=2 / b_adapt=2 / b_bias=0 / direct=3 / weightb=1 / weightp=2 / keyint=250 / keyint_min=25 / scenecut=40 / intra_refresh=0 / rc_lookahead=60 / rc=2pass / mbtree=1 / bitrate=1549 / ratetol=1.0 / qcomp=0.60 / qpmin=10 / qpmax=51 / qpstep=4 / cplxblur=20.0 / qblur=0.5 / vbv_maxrate=50000 / vbv_bufsize=62500 / ip_ratio=1.40 / aq=1:1.00 / nal_hrd=none
Язык: English

Аудио #1
Идентификатор: 2
Формат: AC-3
Формат/Информация: Audio Coding 3
Расширение режима: CM (complete main)
Идентификатор кодека: A_AC3
Продолжительность: 2 ч. 26 м.
Вид битрейта: Постоянный
Битрейт: 384 Кбит/сек
Каналы: 6 каналов
Расположение каналов: Front: L C R, Side: L R, LFE
Частота: 48,0 КГц
Битовая глубина: 16 бит
Метод сжатия: С потерями
Размер потока: 402 Мбайт (18%)
Заголовок: AC3 - Дубляж
Язык: Russian

Аудио #2
Идентификатор: 3
Формат: AC-3
Формат/Информация: Audio Coding 3
Расширение режима: CM (complete main)
Идентификатор кодека: A_AC3
Продолжительность: 2 ч. 26 м.
Вид битрейта: Постоянный
Битрейт: 192 Кбит/сек
Каналы: 2 канала
Расположение каналов: Front: L R
Частота: 48,0 КГц
Битовая глубина: 16 бит
Метод сжатия: С потерями
Размер потока: 201 Мбайт (9%)
Заголовок: AC3
Язык: English

Текст #1
Идентификатор: 4
Формат: UTF-8
Идентификатор кодека: S_TEXT/UTF8
Идентификатор кодека/Информация: UTF-8 Plain Text
Заголовок: Forced
Язык: Russian

Текст #2
Идентификатор: 5
Формат: UTF-8
Идентификатор кодека: S_TEXT/UTF8
Идентификатор кодека/Информация: UTF-8 Plain Text
Заголовок: Full
Язык: Russian

Текст #3
Идентификатор: 6
Формат: UTF-8
Идентификатор кодека: S_TEXT/UTF8
Идентификатор кодека/Информация: UTF-8 Plain Text
Язык: English










Поделиться:




реклама партнёра


Вернуться к началу
 Профиль Отправить личное сообщение  
 
   Похожие торренты   Автор   Торрент   Размер 
В этой теме нет новых непрочитанных сообщений. Секс в большом городе / Sex And The City / 1-6 сезоны 1-94 серии из 94 [мелодрама, комедия, 1998-2004] DVDRip-AVC, Mvo [НТВ]

salma3

20 | 20

41.14 ГБ

В этой теме нет новых непрочитанных сообщений. Развод в большом городе / What Maisie Knew [Драма, 2012] HDRip, Mvo

Dracon

102 | 4

1.37 ГБ

В этой теме нет новых непрочитанных сообщений. Секс в небольшом городе / School for Seduction [Комедия, мелодрама, драма, 2004] DVDRip, Mvo

salma3

53 | 3

1.37 ГБ

В этой теме нет новых непрочитанных сообщений. Патрик / Patrick [ужасы, фантастика, триллер, 2013] HDRip, dvo

Dracon

277 | 14

1.47 ГБ

В этой теме нет новых непрочитанных сообщений. Найти мужа в большом городе [01-04 из 04] [Мелодрама, 2014] SATRip

Dracon

488 | 135

2.34 ГБ

В этой теме нет новых непрочитанных сообщений. Любовь в большом городе 3 [01-06 из 08] [Комедия, 2014] HDTVRip

Dracon

5 | 2

3.83 ГБ

В этой теме нет новых непрочитанных сообщений. Любовь в большом городе 3 [Комедия, 2014] WEB-DL 720p [iTunes]

Dracon

317 | 17

2.35 ГБ


Начать новую тему Ответить на тему  [ 1 сообщение ] 




Для Мосгорсуда, Роскомнадзора и рекламодателей:: mosgorsud-torrent[собачка]yandex.ru