Торрент файл
скачать торрент магнет ссылка Добавлен: 15 янв 2012, 20:31
Размер: 1.46 ГБ
Сидеров: 4
Личеров: 4
Автор

СообщениеДобавлено: 15 янв 2012, 20:31 

Не в сети
Супермодератор
Аватара пользователя
Дата регистрации:
11 апр 2010, 18:10
Спасибо: 5803 / 7
Сообщения: 56779
Электра Luxx / Elektra Luxx



Перевод:Профессиональный (многоголосый, закадровый), субтитры: отсутствуют
Формат: HDRip-AVC, MKV, H.264, AC3
Страна: США
Жанр: мелодрама, комедия
Продолжительность: 01:39:56
Режиссер: Себастьян Гутьеррес / Sebastian Gutierrez
Год выпуска: 2010

В ролях:Джозеф Гордон-Левитт, Карла Гуджино, Тимоти Олифант, Эрман Оспина, Джейк Хэймс, Кэтлин Куинлен, Мелисса Мари Стефенс, Люси Панч, Марли Шелтон, Эми Рософф.

Описание: Порнозвезда Электра Люкс узнает о том, что беременна и решает переквалифицироваться. Она открывает курсы сексуального образования для домохозяек. Однако ее мечтам о спокойной жизни не суждено сбыться. Все переворачивается с ног на голову, когда к ней приезжает ее старая знакомая и просит Электру соблазнить ее кузена. Согласившись помочь, Электра оказывается втянутой в целый калейдоскоп комичных и пикантных ситуаций.

________

Видео: 896x 504 (1:77:7), 23,976 кадр/сек, AVC (х264), High@L4.1, ~ 1 712Kbps,0.158 bit/pixel
Аудио: 48 kHz, AC3 Dolby Digital, 3/2 (L,C,R,l,r) + LFE ch, ~384 kbps

Автор РИПа:ANDREY22W22
Общее
Уникальный идентификатор: 174806111285720491797066040734385469021 (0x83826EB2FE0700239AF0BE95A8F4765D)
Полное имя: E:\рипы\elektra_luxx_[tfile.ru].mkv
Формат: Matroska
Версия формата: Version 2
Размер файла: 1,46 Гбайт
Продолжительность: 1 ч. 39 м.
Общий поток: 2097 Кбит/сек
Дата кодирования: UTC 2011-12-21 00:34:48
Программа кодирования: mkvmerge v4.9.1 ('Ich will') зібрано Aug 10 2011 09:31:20
Библиотека кодирования: libebml v1.2.1 + libmatroska v1.2.0

Видео
Идентификатор: 1
Формат: AVC
Формат/Информация: Advanced Video Codec
Профиль формата: High@L4.1
Параметр CABAC формата: Да
Параметр ReFrames формата: 4 кадра
Идентификатор кодека: V_MPEG4/ISO/AVC
Продолжительность: 1 ч. 39 м.
Битрейт: 1712 Кбит/сек
Ширина: 896 пикс.
Высота: 504 пикс.
Соотношение сторон: 16:9
Частота кадров: 23,976 кадр/сек
Цветовое пространство: YUV
Подвыборка цветности: 4:2:0
Битовая глубина: 8 бит
Тип развёртки: Прогрессивная
Бит/(Пиксели*Кадры): 0.158
Размер потока: 1,17 Гбайт (80%)
Библиотека кодирования: x264 core 116 r2074 2641b9e
Настройки программы: cabac=1 / ref=3 / deblock=1:0:0 / analyse=0x3:0x113 / me=hex / subme=7 / psy=1 / psy_rd=1.00:0.00 / mixed_ref=1 / me_range=16 / chroma_me=1 / trellis=1 / 8x8dct=1 / cqm=0 / deadzone=21,11 / fast_pskip=1 / chroma_qp_offset=-2 / threads=12 / sliced_threads=0 / nr=0 / decimate=1 / interlaced=0 / bluray_compat=0 / constrained_intra=0 / bframes=3 / b_pyramid=2 / b_adapt=1 / b_bias=0 / direct=1 / weightb=1 / open_gop=0 / weightp=2 / keyint=250 / keyint_min=23 / scenecut=40 / intra_refresh=0 / rc_lookahead=40 / rc=2pass / mbtree=1 / bitrate=1712 / ratetol=1.0 / qcomp=0.60 / qpmin=0 / qpmax=69 / qpstep=4 / cplxblur=20.0 / qblur=0.5 / ip_ratio=1.40 / aq=1:1.00

Аудио
Идентификатор: 2
Формат: AC-3
Формат/Информация: Audio Coding 3
Расширение режима: CM (complete main)
Идентификатор кодека: A_AC3
Продолжительность: 1 ч. 39 м.
Вид битрейта: Постоянный
Битрейт: 384 Кбит/сек
Каналы: 6 каналов
Расположение каналов: Front: L C R, Side: L R, LFE
Частота: 48,0 КГц
Битовая глубина: 16 бит
Метод сжатия: С потерями
Размер потока: 274 Мбайт (18%)







Поделиться:




реклама партнёра


Вернуться к началу
 Профиль Отправить личное сообщение  
 
   Похожие торренты   Автор   Торрент   Размер 
В этой теме нет новых непрочитанных сообщений. Отель «Нуар» / Hotel Noir (Себастьян Гутьеррес / Sebastian Gutierrez) [2012 г., драма, криминал, HDRip-AVC] AVO

Alfredovich

10 | 5

2.18 ГБ

В этой теме нет новых непрочитанных сообщений. Глория / Gloria (Себастьян Лелио / Sebastián Lelio) [2013г., драма, комедия, BDRip 720p] MVO

Alfredovich

51 | 6

4.53 ГБ

В этой теме нет новых непрочитанных сообщений. Boffing The Babysitter 15 / Трахая нянечку 15 (Devil's Films) (Anthony Rosano, Callie Carter, Casey Stone, Layla Luxx, Marco Banderas...) [2013 г., All sex, Gonzo, Legal Teen, Babysitter, DVDRip 404p]

friizze

6 | 3

1.16 ГБ

В этой теме нет новых непрочитанных сообщений. Книга жизни / The Book of Life (Хорхе Р. Гутьеррес) [Мультфильм, фэнтези, мелодрама, комедия, приключения, семейный, 2014] HDRip, Mvo

Dracon

931 | 4

1.37 ГБ

В этой теме нет новых непрочитанных сообщений. Книга жизни / The Book of Life (Хорхе Р. Гутьеррес) [Мультфильм, фэнтези, мелодрама, комедия, приключения, семейный, 2014] HDRip, Dub [iTunes]

Dracon

14 | 2

1.37 ГБ

В этой теме нет новых непрочитанных сообщений. Книга жизни  / The Book of Life (Хорхе Р. Гутьеррес) [Мультфильм, фэнтези, мелодрама, комедия, приключения, семейный, 2014] HDRip, Dub [iTunes]

Dracon

0 | 2

700.38 МБ

В этой теме нет новых непрочитанных сообщений. Книга жизни / The Book of Life (Хорхе Р. Гутьеррес) [Мультфильм, фэнтези, мелодрама, комедия, приключения, семейный, 2014] BDRip 720p, Mvo

Dracon

64 | 6

4.54 ГБ


Начать новую тему Ответить на тему  [ 1 сообщение ] 




Для Мосгорсуда, Роскомнадзора и рекламодателей:: mosgorsud-torrent[собачка]yandex.ru