Торрент файл
скачать торрент магнет ссылка Добавлен: 15 янв 2012, 20:31
Размер: 1.48 ГБ
Сидеров: 141
Личеров: 10
Автор

СообщениеДобавлено: 15 янв 2012, 20:31 

Не в сети
Супермодератор
Аватара пользователя
Дата регистрации:
11 апр 2010, 18:10
Спасибо: 5799 / 7
Сообщения: 56779
[b]Хочу как ты / The Change-Up[/b]


Перевод: Профессиональный (полное дублирование)
Субтитры: отсутствуют
Формат: HDRip-AVC, MKV, H.264, AC3

Страна:США

Режиссер: Дэвид Добкин
Жанр: комедия
Продолжительность: 01:52:33
Год выпуска: 2011

В ролях: Райан Рейнольдс, Джейсон Бейтман, Лесли Манн, Оливия Уайлд, Алан Аркин, Мирчи Монро, Грегори Итцин, Нед Шмидтке, Ло Минг, Сидни Рувьер, Дэкс Гриффин, Андреа Мур.

Описание: В детстве Митч и Дейв были неразлучными друзьями. Но со временем их дороги разошлись. Дейв стал успешным юристом и примерным семьянином. Митч же остался холостяком и сердцеедом. Он считает, что у друга есть все, о чем только можно мечтать: прекрасная жена Джейми, любящие дети и крутая работа. Дейву же представляется сказочной беззаботная жизнь Митча, который днем курит травку, а ночи проводит в компании красивых женщин.
Но однажды в жизни друзей все переворачивается вверх дном: Митч становится Дейвом, а Дейв - Митчем.
Митчу приходится заняться воспитанием троих детей Дейва и взять на себя его работу. На носу - крупная сделка, от результатов которой зависит карьера его друга, но Митч не смыслит в этом ничего.
Ситуацию также усложняет обворожительная коллега Дейва, Сабрина, которая не дает прохода Митчу. Старый Митч пошел бы на все, чтобы провести время с этой девушкой. Проблема лишь в том, что в его теле живет Дейв, идеальный муж и папаша, который не может расслабиться ни на минуту.
Друзья вскоре понимают, что реальность не такая радужная, как фантазии.
Героям придется как следует постараться, чтобы вернуть все на свое место и не разрушить окончательно жизни друг друга.




Видео: 1024x432 (2.35:1), 23.976 fps, AVC MPEG-4 High@L4.1 ~1457 kbps avg, 0.137 bit/pixel
Аудио: 48 kHz, AC3 Dolby Digital, 3/2 (L,C,R,l,r) + LFE ch, ~384 kbps avg

Релиз группы

Рип от: __


General
Unique ID: 185270557083686006633939269523492768920 (0x8B61CFB5F30C1253AF271FD1BC270C9
Complete name: D:\Мои рипы\Xochu.kak.ty(Teatralnaja.versija).2011.D.HDRip.mkv
Format: Matroska
Format version: Version 2
File size: 1.48 GiB
Duration: 1h 52mn
Overall bit rate: 1 879 Kbps
Movie name: The.Change.Up.S.I.D
Encoded date: UTC 2011-12-25 21:03:36
Writing application: mkvmerge v2.9.8 ('C'est le bon') built on Aug 13 2009 12:49:06
Writing library: libebml v0.7.7 + libmatroska v0.8.1

Video
ID: 1
Format: AVC
Format/Info: Advanced Video Codec
Format profile: High@L4.1
Format settings, CABAC: Yes
Format settings, ReFrames: 8 frames
Codec ID: V_MPEG4/ISO/AVC
Duration: 1h 52mn
Bit rate: 1 457 Kbps
Nominal bit rate: 1 534 Kbps
Width: 1 024 pixels
Height: 432 pixels
Display aspect ratio: 2.35:1
Frame rate: 23.976 fps
Color space: YUV
Chroma subsampling: 4:2:0
Bit depth: 8 bits
Scan type: Progressive
Bits/(Pixel*Frame): 0.137
Stream size: 1.15 GiB (78%)
Title: RG Films Tfile
Writing library: x264 core 119 r2106 07efeb4
Encoding settings: cabac=1 / ref=8 / deblock=1:-1:-1 / analyse=0x3:0x111 / me=umh / subme=0 / psy=1 / psy_rd=1.00:0.10 / mixed_ref=1 / me_range=16 / chroma_me=1 / trellis=2 / 8x8dct=1 / cqm=0 / deadzone=21,11 / fast_pskip=0 / chroma_qp_offset=-1 / threads=6 / sliced_threads=0 / nr=0 / decimate=1 / interlaced=0 / bluray_compat=0 / constrained_intra=0 / bframes=8 / b_pyramid=2 / b_adapt=2 / b_bias=0 / direct=1 / weightb=1 / open_gop=0 / weightp=2 / keyint=250 / keyint_min=23 / scenecut=40 / intra_refresh=0 / rc_lookahead=40 / rc=abr / mbtree=1 / bitrate=1534 / ratetol=1.0 / qcomp=0.60 / qpmin=0 / qpmax=69 / qpstep=4 / ip_ratio=1.40 / aq=1:1.00
Language: English
Default: Yes
Forced: No

Audio
ID: 2
Format: AC-3
Format/Info: Audio Coding 3
Mode extension: CM (complete main)
Codec ID: A_AC3
Duration: 1h 52mn
Bit rate mode: Constant
Bit rate: 384 Kbps
Channel(s): 6 channels
Channel positions: Front: L C R, Side: L R, LFE
Sampling rate: 48.0 KHz
Bit depth: 16 bits
Compression mode: Lossy
Stream size: 309 MiB (20%)
Title: Dublirovfnie
Language: Russian
Default: Yes
Forced: No








Поделиться:




реклама партнёра


Вернуться к началу
 Профиль Отправить личное сообщение  
 
   Похожие торренты   Автор   Торрент   Размер 
В этой теме нет новых непрочитанных сообщений. Судья / The Judge (Дэвид Добкин) [Драма, 2014] HDRip, Dub [Лицензия]

Dracon

15 | 2

2.05 ГБ

В этой теме нет новых непрочитанных сообщений. Судья / The Judge (Дэвид Добкин) [Драма, 2014] HDRip, Dub [iTunes]

Dracon

16 | 2

1.37 ГБ

В этой теме нет новых непрочитанных сообщений. Судья / The Judge (Дэвид Добкин) [Драма, 2014] HDRip, Dub [iTunes]

Dracon

18 | 3

2.05 ГБ

В этой теме нет новых непрочитанных сообщений. Судья / The Judge (Дэвид Добкин) [2014, драма, WEB-DLRip-AVC | iTunes] Dub

Nickolas3435

869 | 22

743.08 МБ

В этой теме нет новых непрочитанных сообщений. Судья / The Judge (Дэвид Добкин) [Драма, 2014] BDRip 1080p, Dub+Sub [Blu-ray CEE]

Dracon

1 | 3

16.93 ГБ

В этой теме нет новых непрочитанных сообщений. Судья / The Judge (Дэвид Добкин) [Драма, 2014] BDRip 720p, Dub [iTunes]

Dracon

6 | 3

6.93 ГБ

В этой теме нет новых непрочитанных сообщений. Судья / The Judge (Дэвид Добкин) [Драма, 2014] BDRip 720p, Dub+Sub [Лицензия]

Dracon

2004 | 67

3.14 ГБ


Начать новую тему Ответить на тему  [ 1 сообщение ] 




Для Мосгорсуда, Роскомнадзора и рекламодателей:: mosgorsud-torrent[собачка]yandex.ru