Торрент файл
скачать торрент магнет ссылка Добавлен: 15 янв 2012, 20:28
Размер: 1.46 ГБ
Сидеров: 36
Личеров: 4
Автор

СообщениеДобавлено: 15 янв 2012, 20:28 

Не в сети
Супермодератор
Аватара пользователя
Дата регистрации:
11 апр 2010, 18:10
Спасибо: 5802 / 7
Сообщения: 56779
Сколько у тебя? / What's Your Number? [Extended]

«У Элли было двадцать...»

Перевод: Профессиональный (полное дублирование)
Субтитры:отсутствуют
Формат: HDRip-AVC, MKV, H.264, AC3

Страна: США
Режиссер: Марк Майлод
Жанр: мелодрама, комедия

Продолжительность: 01:43:53
Год выпуска: 2011

В ролях: Анна Фэрис, Крис Эванс, Дэйв Эннэйбл, Эри Грейнор, Блайт Даннер, Эд Бегли мл., Оливер Джексон-Коэн

Описание: Элли Дарлинг отправляется на поиски лучшего бывшего бойфренда в своей жизни, и это путешествие представляется ей абсолютно необходимым, после того, как она прочитала в журнале статью, предупреждающую о том, что люди, у которых в жизни было более 20 романов, упустили шанс найти свою настоящую любовь.

Элли — настоящая современная героиня. Она умная, привлекательная, забавная и романтичная — девушка, которая пытается понять, кто она на самом деле и с кем ей следует связать свою жизнь. Хотя к поиску бывшего лучшего кавалера ее подстегнула статья в журнале, это означает нечто более важное: у Элли наступил в жизни такой момент, когда она оказалась без мужа, без работы, и ее жизнь совсем не такая, о которой она мечтала. Она оказалась на перепутье, и это заставляет ее задуматься о том, что за последнее десятилетие она могла пропустить что-то, или кого-то, очень значимого в своей жизни.








Видео: 960x512 (1.875:1), 23.976 fps, AVC (x264) High@L5.1 ~1393 kbps avg, 0.12 bit/pixel
Аудио: 48 kHz, AC3 Dolby Digital, 3/2 (L,C,R,l,r) + LFE ch, 384 kbps avg

Примечание:EXTENDED версия не выходила в дубляже, отсутствует около 13 мин перевода.

Релиз-Группа:

Рип от:TswetkOFF



General
Unique ID: 242271101436296049658719369149205800401 (0xB643B78634F411BCB5B087B06C7165D1)
Complete name: D:\Films\skolko_y_tebya_[tfile.ru].mkv
Format: Matroska
File size: 1.46 GiB
Duration: 1h 57mn
Overall bit rate: 1 778 Kbps
Encoded date: UTC 2012-01-03 19:09:17
Writing application: mkvmerge v4.6.0 ('Still Crazy After All These Years') сборка от Apr1 2011 21:01:49
Writing library: libebml v1.2.0 + libmatroska v1.1.0

Video
ID: 1
Format: AVC
Format/Info: Advanced Video Codec
Format profile: High@L5.1
Format settings, CABAC: Yes
Format settings, ReFrames: 4 frames
Format settings, GOP: M=4, N=32
Codec ID: V_MPEG4/ISO/AVC
Duration: 1h 57mn
Bit rate: 1 393 Kbps
Width: 960 pixels
Height: 512 pixels
Display aspect ratio: 1.875
Frame rate: 23.976 fps
Color space: YUV
Chroma subsampling: 4:2:0
Bit depth: 8 bits
Scan type: Progressive
Bits/(Pixel*Frame): 0.118
Stream size: 1.11 GiB (76%)
Writing library: x264 core 115 r1937 aa21558
Encoding settings: cabac=1 / ref=3 / deblock=1:0:0 / analyse=0x3:0x113 / me=hex / subme=7 / psy=1 / psy_rd=1.00:0.00 / mixed_ref=1 / me_range=16 / chroma_me=1 / trellis=1 / 8x8dct=1 / cqm=0 / deadzone=21,11 / fast_pskip=1 / chroma_qp_offset=-2 / threads=3 / sliced_threads=0 / nr=0 / decimate=1 / interlaced=0 / bluray_compat=0 / constrained_intra=0 / bframes=3 / b_pyramid=2 / b_adapt=1 / b_bias=0 / direct=1 / weightb=1 / open_gop=0 / weightp=2 / keyint=250 / keyint_min=23 / scenecut=40 / intra_refresh=0 / rc_lookahead=40 / rc=2pass / mbtree=1 / bitrate=1393 / ratetol=1.0 / qcomp=0.60 / qpmin=0 / qpmax=69 / qpstep=4 / cplxblur=20.0 / qblur=0.5 / ip_ratio=1.40 / aq=1:1.00

Audio
ID: 2
Format: AC-3
Format/Info: Audio Coding 3
Mode extension: CM (complete main)
Codec ID: A_AC3
Duration: 1h 57mn
Bit rate mode: Constant
Bit rate: 384 Kbps
Channel(s): 6 channels
Channel positions: Front: L C R, Side: L R, LFE
Sampling rate: 48.0 KHz
Bit depth: 16 bits
Compression mode: Lossy
Stream size: 322 MiB (22%)









Поделиться:




реклама партнёра


Вернуться к началу
 Профиль Отправить личное сообщение  
 
   Похожие торренты   Автор   Торрент   Размер 
В этой теме нет новых непрочитанных сообщений. Сколько у тебя? / What's Your Number? [Комедия, мелодрама, 2011] BDRip 1080p, Dub+Sub [Theatrical Cut]

salma3

40 | 4

7.74 ГБ

В этой теме нет новых непрочитанных сообщений. Бесстыжие / Бесстыдники / Shameless (US) [1-5 сезоны 1-60 серии из 60] (Марк Майлод, Джон Уэллс, Мими Ледер) [2011-2015, драма, комедия, HDTVRip | AlexFilm]

Nickolas3435

0 | 31

35.79 ГБ

В этой теме нет новых непрочитанных сообщений. Бесстыжие / Бесстыдники / Shameless (US) [05x01-09 из 12] (Марк Майлод, Джон Уэллс, Мими Ледер) [2015, драма, комедия, HDTVRip | AlexFilm]

Nickolas3435

64 | 68

5.61 ГБ

В этой теме нет новых непрочитанных сообщений. Бесстыжие / Бесстыдники / Shameless (US) [05x01-04 из 12] (Марк Майлод, Джон Уэллс, Мими Ледер) [2015, драма, комедия, HDTVRip | AlexFilm]

Nickolas3435

97 | 137

2.49 ГБ

В этой теме нет новых непрочитанных сообщений. Бесстыжие / Бесстыдники / Shameless (US) [05x01-12 из 12] (Марк Майлод, Джон Уэллс, Мими Ледер) [2015, драма, комедия, HDTVRip 720p | AlexFilm]

Nickolas3435

124 | 204

16.08 ГБ

В этой теме нет новых непрочитанных сообщений. Бесстыжие / Бесстыдники / Shameless (US) [05x01-09 из 12] (Марк Майлод, Джон Уэллс, Мими Ледер) [2015, драма, комедия, HDTVRip 720p | AlexFilm]

Nickolas3435

10 | 26

12.17 ГБ

В этой теме нет новых непрочитанных сообщений. Бесстыжие / Бесстыдники / Shameless (US) [05x01-06 из 12] (Марк Майлод, Джон Уэллс, Мими Ледер, Санаа Хамри, Питер Сигал)[2015, драма, комедия, HDTVRip | AlexFilm]

Nickolas3435

249 | 287

3.74 ГБ


Начать новую тему Ответить на тему  [ 1 сообщение ] 




Для Мосгорсуда, Роскомнадзора и рекламодателей:: mosgorsud-torrent[собачка]yandex.ru