Торрент файл
скачать торрент магнет ссылка Добавлен: 15 янв 2012, 20:28
Размер: 2.24 ГБ
Сидеров: 45
Личеров: 5
Автор

СообщениеДобавлено: 15 янв 2012, 20:28 

Не в сети
Супермодератор
Аватара пользователя
Дата регистрации:
11 апр 2010, 18:10
Спасибо: 5960 / 7
Сообщения: 56765
Правила съема: Метод Хитча / Hitch


Перевод: Профессиональный (полное дублирование)
Субтитры:отсутствуют
Формат: HDRip, MKV, H.264, AC3

Страна: США
Режиссер: Энди Теннант
Жанр: комедия

Продолжительность: 01:58:16
Год выпуска: 2005

В ролях: Уилл Смит, Ева Мендес, Кевин Джеймс, Эмбер Валлетта, Джули Энн Эмери, Адам Аркин, Робин Ли, Натан Ли Грэхэм, Майкл Рапапорт, Джеффри Донован

Описание: Алекс «Хитч» Хитченс — легендарный нью-йоркский «доктор-сват». Множеству мужчин он помог добиться взаимности от женщин их мечты. Хитч не бескорыстен, он получает за свою работу гонорар, но предусмотрительно хранит в тайне свой способ зарабатывать на жизнь. Новый клиент Хитча — Альберт, робкий бухгалтер, без ума влюблённый в гламурную звезду Аллегру Коул. Для Хитча этот случай должен стать вершиной его карьеры. Однако, работая над этим делом, он вдруг встречает достойного противника в лице эффектной и проницательной Сары Мелас, журналистки, ведущей колонку светских сплетен, и следящей за каждым шагом Аллегры. Профессиональный холостяк Хитч внезапно обнаруживает, что по уши влюблён в Сару, которая, в свою очередь, близка к сенсационному открытию: она только что вышла на след таинственного манхэттенского «доктора-свата».







Видео: 1280x536 (2.35:1), 23.976 fps, AVC (x264) High@L4.1 ~2324 kbps avg, 0.14 bit/pixel
Аудио: 48 kHz, AC3 Dolby Digital, 3/2 (L,C,R,l,r) + LFE ch, ~384 kbps

Релиз-Группа:

Рип от:TswetkOFF




Complete name: D:\Films\hitch_RG_Films_[tfile.ru].mkv
Format: Matroska
File size: 2.24 GiB
Duration: 1h 58mn
Overall bit rate: 2 709 Kbps
Encoded date: UTC 2012-01-04 12:26:07
Writing application: mkvmerge v4.6.0 ('Still Crazy After All These Years') сборка от Apr1 2011 21:01:49
Writing library: libebml v1.2.0 + libmatroska v1.1.0

Video
ID: 1
Format: AVC
Format/Info: Advanced Video Codec
Format profile: High@L4.1
Format settings, CABAC: Yes
Format settings, ReFrames: 4 frames
Codec ID: V_MPEG4/ISO/AVC
Duration: 1h 58mn
Bit rate: 2 324 Kbps
Width: 1 280 pixels
Height: 536 pixels
Display aspect ratio: 2.35:1
Frame rate: 23.976 fps
Color space: YUV
Chroma subsampling: 4:2:0
Bit depth: 8 bits
Scan type: Progressive
Bits/(Pixel*Frame): 0.141
Stream size: 1.88 GiB (84%)
Writing library: x264 core 115 r1937 aa21558
Encoding settings: cabac=1 / ref=2 / deblock=1:-1:-1 / analyse=0x3:0x113 / me=hex / subme=4 / psy=1 / psy_rd=0.00:0.10 / mixed_ref=0 / me_range=16 / chroma_me=1 / trellis=1 / 8x8dct=1 / cqm=0 / deadzone=21,11 / fast_pskip=1 / chroma_qp_offset=-1 / threads=3 / sliced_threads=0 / nr=0 / decimate=1 / interlaced=0 / bluray_compat=0 / constrained_intra=0 / bframes=3 / b_pyramid=2 / b_adapt=1 / b_bias=0 / direct=1 / weightb=1 / open_gop=0 / weightp=1 / keyint=250 / keyint_min=23 / scenecut=40 / intra_refresh=0 / rc_lookahead=20 / rc=2pass / mbtree=1 / bitrate=2324 / ratetol=1.0 / qcomp=0.60 / qpmin=0 / qpmax=69 / qpstep=4 / cplxblur=20.0 / qblur=0.5 / ip_ratio=1.40 / aq=1:1.00

Audio
ID: 2
Format: AC-3
Format/Info: Audio Coding 3
Mode extension: CM (complete main)
Codec ID: A_AC3
Duration: 1h 58mn
Bit rate mode: Constant
Bit rate: 384 Kbps
Channel(s): 6 channels
Channel positions: Front: L C R, Side: L R, LFE
Sampling rate: 48.0 KHz
Bit depth: 16 bits
Compression mode: Lossy
Stream size: 325 MiB (14%)














Поделиться:




реклама партнёра


Вернуться к началу
 Профиль Отправить личное сообщение  
 
   Похожие торренты   Автор   Торрент   Размер 
В этой теме нет новых непрочитанных сообщений. Правила жизни французского парня / Libre et assoupi [Комедия, 2014] HDRip, mvo [Чистый звук]

Dracon

1298 | 64

1.36 ГБ

В этой теме нет новых непрочитанных сообщений. Семилетняя задержка / The Seven Year Hitch [Комедия, мелодрама, 2012] BDRip 720p, Dvo

salma3

37 | 10

2.38 ГБ

В этой теме нет новых непрочитанных сообщений. Каникулы мечты / What We Did on Our Holiday (Энди Хэмилтон, Гай Дженкин) [Драма, Комедия, 2014] HDRip, Mvo

Dracon

116 | 2

1.46 ГБ

В этой теме нет новых непрочитанных сообщений. Правила игры (Холостяцкие игры) / Bachelor Games [ужасы, боевик, триллер, комедия, приключения, 2016] HDRip, Avo

salma3

199 | 9

1.28 ГБ

В этой теме нет новых непрочитанных сообщений. Толстяк против всех / Paul Blart: Mall Cop 2 (Энди Фикмен) [Боевик, Комедия, 2015] HDRip, Mvo [iTunes]

Dracon

7 | 0

744.77 МБ

В этой теме нет новых непрочитанных сообщений. Толстяк против всех / Paul Blart: Mall Cop 2 (Энди Фикмен) [Боевик, Комедия, 2015] HDRip, Mvo [iTunes]

Dracon

12 | 1

1.45 ГБ

В этой теме нет новых непрочитанных сообщений. 1+1. Нарушая правила / Inseparables [драма, комедия, 2016] WEB-DLRip-AVC, Mvo [iTunes]

salma3

113 | 21

1.77 ГБ


Начать новую тему Ответить на тему  [ 1 сообщение ] 




Для Мосгорсуда, Роскомнадзора и рекламодателей:: mosgorsud-torrent[собачка]yandex.ru