Торрент файл
скачать торрент магнет ссылка Добавлен: 15 янв 2012, 20:27
Размер: 2.23 ГБ
Сидеров: 41
Личеров: 6
Автор

СообщениеДобавлено: 15 янв 2012, 20:27 

Не в сети
Супермодератор
Аватара пользователя
Дата регистрации:
11 апр 2010, 18:10
Спасибо: 5802 / 7
Сообщения: 56779
Сердцеед / L'arnacoeur

«Перед ним пока не устояла ни одна женщина...»

Перевод: Профессиональный (полное дублирование)
Субтитры:отсутствуют
Формат: HDRip, MKV, H.264, AC3

Страна: Франция, Монако
Режиссер: Паскаль Шомель
Жанр: мелодрама, комедия

Продолжительность: 01:44:50
Год выпуска: 2010

В ролях: Ромен Дюри, Ванесса Паради, Жюли Ферье, Франсуа Дамиенс, Элена Ногуэрра, Эндрю Линкольн

Описание: Прожженный дамский угодник Алекс затевает на пару с сестрой занятный бизнес: он разбивает нежелательные для клиентов романтические союзы. Дело идет как по маслу, пока Алексу не попадается по-настоящему сложный заказ — ему поручено разлучить поистине идеальную пару.





Видео: 1280x544 (2.35:1), 23.976 fps, AVC (x264) High@L4.1 ~2658 kbps avg, 0.16 bit/pixel
Аудио: 48 kHz, AC3 Dolby Digital, 3/2 (L,C,R,l,r) + LFE ch, ~384 kbps avg

Релиз-Группа:

Рип от:TswetkOFF





Format: Matroska
File size: 2.23 GiB
Duration: 1h 44mn
Overall bit rate: 3 043 Kbps
Encoded date: UTC 2012-01-08 10:46:48
Writing application: mkvmerge v3.2.0 ('Beginnings') built on Feb 12 2010 16:46:17
Writing library: libebml v0.7.9 + libmatroska v0.8.1

Video
ID: 1
Format: AVC
Format/Info: Advanced Video Codec
Format profile: High@L4.1
Format settings, CABAC: Yes
Format settings, ReFrames: 4 frames
Codec ID: V_MPEG4/ISO/AVC
Duration: 1h 44mn
Bit rate: 2 658 Kbps
Width: 1 280 pixels
Height: 544 pixels
Display aspect ratio: 2.35:1
Frame rate: 23.976 fps
Color space: YUV
Chroma subsampling: 4:2:0
Bit depth: 8 bits
Scan type: Progressive
Bits/(Pixel*Frame): 0.159
Stream size: 1.90 GiB (85%)
Writing library: x264 core 115 r1937 aa21558
Encoding settings: cabac=1 / ref=3 / deblock=1:-1:-1 / analyse=0x3:0x113 / me=hex / subme=7 / psy=1 / psy_rd=1.00:0.10 / mixed_ref=1 / me_range=16 / chroma_me=1 / trellis=1 / 8x8dct=1 / cqm=0 / deadzone=21,11 / fast_pskip=1 / chroma_qp_offset=-3 / threads=3 / sliced_threads=0 / nr=0 / decimate=1 / interlaced=0 / bluray_compat=0 / constrained_intra=0 / bframes=3 / b_pyramid=2 / b_adapt=1 / b_bias=0 / direct=1 / weightb=1 / open_gop=0 / weightp=2 / keyint=250 / keyint_min=23 / scenecut=40 / intra_refresh=0 / rc_lookahead=40 / rc=2pass / mbtree=1 / bitrate=2658 / ratetol=1.0 / qcomp=0.60 / qpmin=0 / qpmax=69 / qpstep=4 / cplxblur=20.0 / qblur=0.5 / ip_ratio=1.40 / aq=1:1.00

Audio
ID: 2
Format: AC-3
Format/Info: Audio Coding 3
Mode extension: CM (complete main)
Codec ID: A_AC3
Duration: 1h 44mn
Bit rate mode: Constant
Bit rate: 384 Kbps
Channel(s): 6 channels
Channel positions: Front: L C R, Side: L R, LFE
Sampling rate: 48.0 KHz
Bit depth: 16 bits
Compression mode: Lossy
Delay relative to video: 1s 500ms
Stream size: 288 MiB (13%)















Поделиться:




реклама партнёра


Вернуться к началу
 Профиль Отправить личное сообщение  
 
   Похожие торренты   Автор   Торрент   Размер 
В этой теме нет новых непрочитанных сообщений. Чистота / Spotless [S01] (Паскаль Шомель, Колин Тиг, Фил Джон) [2015, криминал, BDRip 720p | AlexFilm]

Dracon

219 | 146

22.43 ГБ

В этой теме нет новых непрочитанных сообщений. Чистота / Spotless [01x01-10 из 10] (Паскаль Шомель, Колин Тиг, Фил Джон) [2015, криминал, HDTVRip | AlexFilm]

Nickolas3435

402 | 144

6.33 ГБ

В этой теме нет новых непрочитанных сообщений. Сынок / Fiston (Паскаль Бюрдо) [комедия, 2014] HDRip, Mvo

Dracon

3041 | 204

1.37 ГБ

В этой теме нет новых непрочитанных сообщений. Лапландская одиссея / Napapiirin sankarit [комедия, драма, мелодрама, 2010] HDRip, Mvo

salma3

59 | 2

1.36 ГБ

В этой теме нет новых непрочитанных сообщений. Зачем мы женимся снова? / Why Did I Get Married Too? [драма, мелодрама, комедия, 2010] HDRip, Mvo [лицензия]

salma3

0 | 2

1.46 ГБ

В этой теме нет новых непрочитанных сообщений. Случайный роман / Beautiful Lies / De vrais mensonges [комедия, мелодрама, 2010] HDRip, Mvo [Лицензия]

salma3

29 | 3

1.46 ГБ

В этой теме нет новых непрочитанных сообщений. Прости, хочу на тебе жениться / Scusa ma ti voglio sposare [комедия, мелодрама, 2010] HDRip, Dub [Лицензия]

salma3

92 | 13

1.37 ГБ


Начать новую тему Ответить на тему  [ 1 сообщение ] 




Для Мосгорсуда, Роскомнадзора и рекламодателей:: mosgorsud-torrent[собачка]yandex.ru