Торрент файл
скачать торрент магнет ссылка Добавлен: 15 янв 2012, 20:26
Размер: 1.37 ГБ
Сидеров: 7
Личеров: 5
Автор

СообщениеДобавлено: 15 янв 2012, 20:26 

Не в сети
Супермодератор
Аватара пользователя
Дата регистрации:
11 апр 2010, 18:10
Спасибо: 5802 / 7
Сообщения: 56779
Агент Джонни Инглиш: Перезагрузка / Johnny English Reborn

Перевод: Профессиональный (полное дублирование) [звук с TS], cубтитры: отсутствуют

Формат: HDRip, AVI, XviD, MP3

Страна: США, Франция, Великобритания

Режиссер: Оливер Паркер

Жанр: боевик, комедия, приключения

Продолжительность: 01:41:21

Год выпуска: 2011

В ролях: Роуэн Эткинсон, Джиллиан Андерсон, Доминик Уэст, Розамунд Пайк, Дэниэл Калуя, Ричард Шифф, Бен Миллер, Стивен Кэмпбелл Мур, Кристина Чонг, Жозефин Де Ла Буме

Описание: Заданием агента на этот раз является преступный заговор, тесно связанный с его прошлым и с увольнением с секретной службы. Заведомо заговор обреченных на провал злодеев, которые тем не менее стараются изо всех сил и находят свой план успешным и гениальным. Но уникальный агент-растяпа способен попутать карты любому игроку своей непосредственностью и отвагой. И там, где не справляются лучшие агенты, преуспевает самый рассеянный и самоуверенный из всех, так как его прыти позавидуют даже неугомонные заговорщики, строящие коварные и хитроумные планы. И хотя Инглиш без особого труда может попасться в любую заготовленную для него ловушку, он с лёгкостью и с юмором выходит сухим из самых сложных ситуаций и передряг.



Видео: 720x304 (2.37:1), 23.976 fps, XviD build 50, 1795 kbps avg, 0.34 bit/pixel
Аудио: 44.100 kHz, MPEG Layer 3, 2 ch, 128.00 kbps avg

Общее
Полное имя : D:\Временная\agent_johnny_english_[tfile.ru].avi
Формат : AVI
Формат/Информация : Audio Video Interleave
Размер файла : 1,37 Гбайт
Продолжительность : 1 ч. 41 м.
Общий поток : 1933 Кбит/сек
Программа кодирования : VirtualDubMod 1.5.10.3 | www.virtualdub-fr.org || (build 2550/release)
Библиотека кодирования : VirtualDubMod build 2550/release

Видео

Идентификатор : 0
Формат : MPEG-4 Visual
Профиль формата : Advanced Simple@L5
Параметр BVOP формата : 2
Параметр QPel формата : Нет
Параметр GMC формата : 3 точки перехода
Параметр матрицы формата : Default (MPEG)
Идентификатор кодека : XVID
Идентификатор кодека/Подсказка : XviD
Продолжительность : 1 ч. 41 м.
Битрейт : 1796 Кбит/сек
Ширина : 720 пикселей
Высота : 304 пикселя
Соотношение сторон : 2,35:1
Частота кадров : 23,976 кадра/сек
Цветовое пространство : YUV
Субдискретизация насыщенности : 4:2:0
Битовая глубина : 8 бит
Тип развёртки : Прогрессивная
Метод сжатия : С потерями
Бит/(Пиксели*Кадры) : 0.342
Размер потока : 1,27 Гбайт (93%)
Библиотека кодирования : XviD 1.2.1 (UTC 2008-12-04)

Аудио

Идентификатор : 1
Формат : MPEG Audio
Версия формата : Version 1
Профиль формата : Layer 3
Режим : Joint stereo
Идентификатор кодека : 55
Идентификатор кодека/Подсказка : MP3
Продолжительность : 1 ч. 41 м.
Вид битрейта : Постоянный
Битрейт : 128 Кбит/сек
Каналы : 2 канала
Частота : 44,1 КГц
Метод сжатия : С потерями
Задержка видео : 4 мс.
Размер потока : 92,8 Мбайт (7%)
Выравнивание : Разделение по промежуткам
Продолжительность промежутка : 42 мс. (1,00 видеокадр)
Время предзагрузки промежутка : 500 мс.
Библиотека кодирования : LAME3.90.3












Поделиться:




реклама партнёра


Вернуться к началу
 Профиль Отправить личное сообщение  
 
   Похожие торренты   Автор   Торрент   Размер 
В этой теме нет новых непрочитанных сообщений. Беги, Джонни / Bhaag Johnny [Боевик, триллер, 2015] DVDRip, Mvo [SDI Media]

salma3

39 | 8

1.37 ГБ

В этой теме нет новых непрочитанных сообщений. Джонни, будь хорошим / Johnny Be Good [Комедия, 1988] HDTVRip, Dvo

salma3

18 | 4

1.45 ГБ

В этой теме нет новых непрочитанных сообщений. Джонни-Зубочистка / Johnny Stecchino [комедия, 1991] BDRip 720p, Mvo

salma3

52 | 4

6.94 ГБ

В этой теме нет новых непрочитанных сообщений. Агент Картер / Agent Carter (Сезон 1-2, Серия 1-18 из 18) (Луис Д'Эспозито, Питер Лето) [2015-2016 , Фантастика, боевик, приключения, криминал, драма , WEB-DLRip-AVC 1080p] [MVO] [LostFilm , Nevafilm , English] + [Subs Rus,ENG]

Враг Нароода

0 | 0

32.66 ГБ

В этой теме нет новых непрочитанных сообщений. Геркулес / Hercules Reborn [боевик, приключения, 2014] HDRip, Avo

salma3

1208 | 82

1.46 ГБ

В этой теме нет новых непрочитанных сообщений. Анаклет: Секретный агент / Anacleto: Agente secreto [Боевик, комедия, 2015] HDRip, dvo

Dracon

489 | 10

1.37 ГБ

В этой теме нет новых непрочитанных сообщений. Агент Коди Бэнкс / Agent Cody Banks [Комедия, боевик, приключения, фантастика, 2003] DVD9, Dub+Dvo+Sub

salma3

5 | 6

7.86 ГБ


Начать новую тему Ответить на тему  [ 1 сообщение ] 




Для Мосгорсуда, Роскомнадзора и рекламодателей:: mosgorsud-torrent[собачка]yandex.ru