Торрент файл
скачать торрент магнет ссылка Добавлен: 15 янв 2012, 20:25
Размер: 2.14 ГБ
Сидеров: 87
Личеров: 10
Автор

СообщениеДобавлено: 15 янв 2012, 20:25 

Не в сети
Супермодератор
Аватара пользователя
Дата регистрации:
11 апр 2010, 18:10
Спасибо: 5802 / 7
Сообщения: 56779
Убрать перископ / Down Periscope



Перевод: Профессиональный (многоголосый закадровый), субтитры:отсутствуют
Формат: HDTVRip-AVC, MKV,H264, AC3
Страна: США
Режиссер: Дэвид С. Уорд
Жанр: Комедия
Продолжительность: 01:28:55
Год выпуска: 1996

В ролях: Келси Грэммер, Лорен Холли, Роб Шнайдер, Гарри Дин Стэнтон, Брюс Дерн, Уильям Х. Мэйси, Кен Хадсон Кэмпбелл, Тоби Хасс, Дуэйн Мартин, Джонатан Пеннер

Описание: Вместо долгожданной атомной подводной лодки капитан Том Додж получает в свое распоряжение допотопную дизельную развалину. Судя по внешнему виду, единственное, на что она способна - это последнее и очень быстрое погружение. Однако его это не смущает, ведь он самый веселый и бесшабашный капитан флота США, настоящий морской волк с татуировкой на интимном месте.
Под стать ему подобрался и экипаж. Более эксцентричных и нелепых матросов в природе не существует. А когда в качестве эксперимента на лодку назначается женщина-офицер, и без того неспокойные моряки просто сходят с ума...


____ ____

Видео: 1024x544 (1.87:1), 25.000 fps, AVC (х264) High@L3.1, ~2300 kbps avg, 0.160 bit/pixel
Аудио 1: русский 48 kHz, Dolby AC3, 3/2 (L,C,R,l,r) + LFE ch, ~384.00 kbps avg [Профессиональный (многоголосый закадровый)]
Аудио 2: русский 48 kHz, Dolby AC3, 3/2 (L,C,R,l,r) + LFE ch, ~384.00 kbps avg [Авторский (Санаев)]
Аудио 3: английский 48 kHz, Dolby AC3, 3/2 (L,C,R,l,r) + LFE ch, ~384.00 kbps avg [Оригинал]


E:\films\down_periscope_[tfile.ru].mkv
General
Complete name : E:\films\down_periscope_[tfile.ru].mkv
Format : Matroska
File size : 2.14 GiB
Duration : 1h 28mn
Overall bit rate : 3 451 Kbps
Encoded date : UTC 2010-09-21 12:52:07
Writing application : mkvmerge v3.2.0 ('Beginnings') built on Feb 12 2010 16:46:17
Writing library : libebml v0.7.9 + libmatroska v0.8.1
Video #1
ID : 1
Format : AVC
Format/Info : Advanced Video Codec
Format profile : High@L3.1
Format settings, CABAC : Yes
Format settings, ReFrames : 4 frames
Muxing mode : Container profile=Unknown@3.1
Codec ID : V_MPEG4/ISO/AVC
Duration : 1h 28mn
Bit rate : 2 231 Kbps
Nominal bit rate : 2 300 Kbps
Width : 1 024 pixels
Height : 544 pixels
Display aspect ratio : 1.870
Frame rate : 25.000 fps
Resolution : 24 bits
Colorimetry : 4:2:0
Scan type : Progressive
Bits/(Pixel*Frame) : 0.160
Stream size : 1.39 GiB (65%)
Writing library : x264 core 98 r1649 c54c47d
Encoding settings : cabac=1 / ref=3 / deblock=1:-1:-1 / analyse=0x3:0x113 / me=hex / subme=7 / psy=1 / psy_rd=1.00:0.15 / mixed_ref=1 / me_range=16 / chroma_me=1 / trellis=1 / 8x8dct=1 / cqm=0 / deadzone=21,11 / fast_pskip=1 / chroma_qp_offset=-3 / threads=3 / sliced_threads=0 / nr=0 / decimate=1 / interlaced=0 / constrained_intra=0 / bframes=3 / b_pyramid=2 / b_adapt=1 / b_bias=0 / direct=1 / weightb=1 / weightp=2 / keyint=250 / keyint_min=25 / scenecut=40 / intra_refresh=0 / rc_lookahead=40 / rc=2pass / mbtree=1 / bitrate=2300 / ratetol=1.0 / qcomp=0.60 / qpmin=10 / qpmax=51 / qpstep=4 / cplxblur=20.0 / qblur=0.5 / ip_ratio=1.40 / aq=1:1.00
Language : English
Audio #2
ID : 2
Format : AC-3
Format/Info : Audio Coding 3
Codec ID : A_AC3
Duration : 1h 28mn
Bit rate mode : Constant
Bit rate : 384 Kbps
Channel(s) : 6 channels
Channel positions : Front: L C R, Surround: L R, LFE
Sampling rate : 48.0 KHz
Video delay : 28ms
Stream size : 244 MiB (11%)
Title : многоголосый
Language : Russian
Audio #3
ID : 3
Format : AC-3
Format/Info : Audio Coding 3
Codec ID : A_AC3
Duration : 1h 28mn
Bit rate mode : Constant
Bit rate : 384 Kbps
Channel(s) : 6 channels
Channel positions : Front: L C R, Surround: L R, LFE
Sampling rate : 48.0 KHz
Stream size : 244 MiB (11%)
Title : Санаев
Language : Russian
Audio #4
ID : 4
Format : AC-3
Format/Info : Audio Coding 3
Codec ID : A_AC3
Duration : 1h 28mn
Bit rate mode : Constant
Bit rate : 384 Kbps
Channel(s) : 6 channels
Channel positions : Front: L C R, Surround: L R, LFE
Sampling rate : 48.0 KHz
Stream size : 244 MiB (11%)
Title : English
Language : English






Поделиться:




реклама партнёра


Вернуться к началу
 Профиль Отправить личное сообщение  
 
   Похожие торренты   Автор   Торрент   Размер 
В этой теме нет новых непрочитанных сообщений. Убрать перископ / Down Periscope [Комедия, 1996] HDTVRip, Mvo+Avo

salma3

689 | 22

1.37 ГБ

В этой теме нет новых непрочитанных сообщений. Множество / Multiplicity [Комедия, Фантастика, 1996] HDTVRip, Dub

salma3

49 | 4

1.46 ГБ

В этой теме нет новых непрочитанных сообщений. Девушка №6 / Girl 6 [драма, комедия, 1996] HDTVRip, Mvo

salma3

37 | 6

1.37 ГБ

В этой теме нет новых непрочитанных сообщений. Беглецы / Fled [Боевик, криминал, комедия, 1996] HDTVRip, Dub+Avo

salma3

96 | 5

1.46 ГБ

В этой теме нет новых непрочитанных сообщений. Стрела / Arrow [03x01-09] (Дэвид Баррет, Дэвид Наттер) [2014, фантастика, боевик, драма, детектив, приключения, HDTVRip | Kerob]

Nickolas3435

142 | 219

4.26 ГБ

В этой теме нет новых непрочитанных сообщений. Стрела / Arrow [03x01-02] (Дэвид Баррет, Дэвид Наттер) [2014, фантастика, боевик, драма, детектив, приключения, HDTVRip | Kerob]

Nickolas3435

184 | 144

983.79 МБ

В этой теме нет новых непрочитанных сообщений. Стрела / Arrow [03x01-04] (Дэвид Баррет, Дэвид Наттер) [2014, фантастика, боевик, драма, детектив, приключения, HDTVRip | Kerob]

Nickolas3435

115 | 180

1.9 ГБ


Начать новую тему Ответить на тему  [ 1 сообщение ] 




Для Мосгорсуда, Роскомнадзора и рекламодателей:: mosgorsud-torrent[собачка]yandex.ru