Торрент файл
скачать торрент магнет ссылка Добавлен: 15 янв 2012, 20:09
Размер: 744.24 МБ
Сидеров: 71
Личеров: 8
Автор

СообщениеДобавлено: 15 янв 2012, 20:09 

Не в сети
Супермодератор
Аватара пользователя
Дата регистрации:
11 апр 2010, 18:10
Спасибо: 5921 / 7
Сообщения: 56776
Посейдон / Poseidon

Перевод: Профессиональный (полное дублирование), cубтитры: отсутствуют
Формат: LowHDRip, AVI, XviD, MP3
Страна: США
Режиссер: Вольфганг Петерсен
Жанр: катастрофа, триллер, драма, приключения
Продолжительность: 01:38:15
Год выпуска: 2006
В ролях: Джош Лукас, Курт Расселл, Ричард Дрейфусс, Майк Фогель, Джассинда Барретт, Эми Россум, Кевин Диллон, Фредди Родригез
Описание: Накануне новогоднего праздника в Атлантическом океане терпит бедствие шикарный круизный лайнер «Посейдон», который перевернула гигантская приливная волна. В то время, как сотни выживших пассажиров, выполняя указания капитана, остаются в главном танцзале и ждут помощи с берега, профессиональный картежник Дилан Джонс ищет свой путь к спасению.
Компанию Дилану вопреки его желанию составляют девятилетний Конор со своей матерью Мэгги, Роберт Рэмси, пытающийся отыскать свою дочь по имени Дженнифер, а также ее жених Кристиан. К ним присоединяются застенчивая безбилетница, пожилой гей, намеревавшийся покончить с собой, и молодой официант. Все они прилагают невероятные усилия, чтобы выбраться из тонущего корабля на поверхность…




Видео: 720x304 (2.37:1), 23.976 fps, XviD build 47 ~921 kbps avg, 0.17 bit/pixel
Аудио: 48 kHz, MPEG Layer 3, 2 ch, ~128.00 kbps avg
General
Complete name: D:\Видео\poseidon_[tfile.ru].avi
Format: AVI
Format/Info: Audio Video Interleave
File size: 744 MiB
Duration: 1h 38mn
Overall bit rate: 1 059 Kbps
Writing application: VirtualDubMod 1.5.10.2 (build 2540/release)
Writing library: VirtualDubMod build 2540/release

Video
ID: 0
Format: MPEG-4 Visual
Format profile: Advanced Simple@L5
Format settings, BVOP: 1
Format settings, QPel: No
Format settings, GMC: No warppoints
Format settings, Matrix: Default (MPEG)
Codec ID: XVID
Codec ID/Hint: XviD
Duration: 1h 38mn
Bit rate: 922 Kbps
Width: 720 pixels
Height: 304 pixels
Display aspect ratio: 2.35:1
Frame rate: 23.976 fps
Color space: YUV
Chroma subsampling: 4:2:0
Bit depth: 8 bits
Scan type: Progressive
Compression mode: Lossy
Bits/(Pixel*Frame): 0.176
Stream size: 648 MiB (87%)
Writing library: XviD 1.2.0.dev47 (UTC 2006-11-01)

Audio
ID: 1
Format: MPEG Audio
Format version: Version 1
Format profile: Layer 3
Codec ID: 55
Codec ID/Hint: MP3
Duration: 1h 38mn
Bit rate mode: Constant
Bit rate: 128 Kbps
Channel(s): 2 channels
Sampling rate: 48.0 KHz
Compression mode: Lossy
Stream size: 90.0 MiB (12%)
Alignment: Aligned on interleaves
Interleave, duration: 42 ms (1.00 video frame)
Interleave, preload duration: 504 ms
Writing library: LAME3.97
Encoding settings: -m s -V 4 -q 2 -lowpass 17 -b 128







Поделиться:




реклама партнёра


Вернуться к началу
 Профиль Отправить личное сообщение  
 
   Похожие торренты   Автор   Торрент   Размер 
В этой теме нет новых непрочитанных сообщений. Посейдон Рекс / Poseidon Rex [фантастика, боевик, 2013] HDRip, Mvo

salma3

910 | 69

1.37 ГБ

В этой теме нет новых непрочитанных сообщений. Пандора / Pandora [триллер, драма, катастрофа, 2016] WEB-DLRip, Dvo

salma3

977 | 335

2.04 ГБ

В этой теме нет новых непрочитанных сообщений. Метеор / Meteor [Фантастика, фильм-катастрофа, боевик, триллер, драма, 1979] BDRip 1080p, Mvo

salma3

48 | 23

7.69 ГБ

В этой теме нет новых непрочитанных сообщений. Катастрофа / Blue Ruin (Джереми Солнье) [2013, триллер, драма, криминал, BDRip 720p] mvo+avo

Dracon

174 | 22

3.74 ГБ

В этой теме нет новых непрочитанных сообщений. Пик Данте / Dante's Peak [Катастрофа, боевик, приключения, 1997] BDRip, Mvo

salma3

97 | 17

2.18 ГБ

В этой теме нет новых непрочитанных сообщений. Апокалипсис / Apocalypto [боевик, триллер, драма, приключения, 2006] BDRip 1080p, Dvo+Sub

salma3

33 | 14

15.55 ГБ

В этой теме нет новых непрочитанных сообщений. Катастрофа / Blue Ruin [триллер, 2013] HDRip, Avo

salma3

62 | 6

1.37 ГБ


Начать новую тему Ответить на тему  [ 1 сообщение ] 




Для Мосгорсуда, Роскомнадзора и рекламодателей:: mosgorsud-torrent[собачка]yandex.ru